<?xml version="1.0" standalone="no"?>
<!DOCTYPE svg PUBLIC "-//W3C//DTD SVG 1.1//EN" "http://www.w3.org/Graphics/SVG/1.1/DTD/svg11.dtd" >
<svg xmlns="http://www.w3.org/2000/svg">
<metadata></metadata>
<defs>
<font id="sosaregular" horiz-adv-x="2048" >
<font-face units-per-em="2048" ascent="1540" descent="-508" />
<missing-glyph horiz-adv-x="438" />
<glyph horiz-adv-x="0" />
<glyph horiz-adv-x="0" />
<glyph unicode=" "  horiz-adv-x="438" />
<glyph unicode="&#x09;" horiz-adv-x="438" />
<glyph unicode="&#xa0;" horiz-adv-x="438" />
<glyph unicode="!" d="M904 -438q-50 50 -50 121t50 121q49 49 120 49t120 -49q50 -50 50 -121t-50 -121q-50 -51 -120 -51q-71 0 -120 51zM854 1047q0 71 50 121q49 51 120 51q70 0 120 -51q50 -50 50 -121q0 -8 -0.5 -14t-1.5 -11l-82 -999h-172l-82 999q-1 5 -1.5 11t-0.5 14z" />
<glyph unicode="&#x22;" horiz-adv-x="561" />
<glyph unicode="#" horiz-adv-x="1409" />
<glyph unicode="$" d="M854 23q0 -48 22.5 -86t61.5 -62v326q-184 32 -305 174t-121 332q0 90 28 168q14 42 33.5 75t40.5 62q55 75 138 127.5t186 70.5v93h172v-93q184 -32 304 -173q122 -143 122 -330h-342q0 96 -84 147v-326q182 -31 304 -174t122 -331q0 -82 -29 -169q-14 -42 -33 -75 t-40 -62q-55 -75 -138 -127.5t-186 -70.5v-92h-172v92q-185 32 -305 173q-121 142 -121 331h342zM854 707q0 -48 22.5 -87t61.5 -63v297q-84 -51 -84 -147zM1110 -125q39 24 61.5 62t22.5 86t-22.5 86.5t-61.5 62.5v-297z" />
<glyph unicode="%" horiz-adv-x="1230" />
<glyph unicode="&#x26;" d="M248 568q90 106 262 130q-51 108 -51 203q0 105 63 197q63 91 159 147q98 56 201 56q118 0 194 -64q78 -65 78 -154q0 -65 -38 -124q-38 -57 -79 -57q-20 0 -20 21q0 8 12 35q17 43 17 88q0 67 -54 109q-56 42 -132 42q-126 0 -232 -102q-108 -104 -108 -235 q0 -60 15 -100q17 -43 29 -53q12 -12 36 -12q154 0 154 -90q0 -23 -16 -42q-17 -20 -47 -20q-35 0 -89 45q-59 50 -112 50q-69 0 -133 -70q-63 -71 -63 -166q0 -186 185 -353q184 -166 462 -166q264 0 448 130q187 130 187 311q0 121 -92 210t-249 89q-126 0 -225 -69 t-99 -174q0 -63 36 -102q36 -41 74 -41q46 0 43 47l-1 14q-1 7 -1 12v8q0 49 27 81t68 32q39 0 68 -28q29 -27 29 -76q0 -72 -48 -118q-49 -47 -125 -47q-88 0 -156 65q-65 62 -65 158q0 138 115 250q116 113 418 113q139 0 235.5 18.5t159.5 56.5q123 73 123 225 q0 89 -55 147t-138 58q-43 0 -62 -12q-21 -12 -21 -36q0 -16 20 -45q26 -38 26 -72q0 -40 -32 -72t-79 -32q-57 0 -85 36q-29 38 -29 84q0 77 74 137q73 60 190 60t197 -87q79 -86 79 -208q0 -116 -68 -211t-171 -134q-51 -19 -123.5 -30.5t-166.5 -15.5q179 -126 179 -324 q0 -148 -110 -288q-111 -139 -265 -205q-156 -67 -381 -67q-183 0 -295 39q-57 20 -111 49t-105 67q-103 76 -161 186q-59 113 -59 237q0 152 89 259z" />
<glyph unicode="'" horiz-adv-x="141" />
<glyph unicode="(" horiz-adv-x="391" />
<glyph unicode=")" horiz-adv-x="587" />
<glyph unicode="*" horiz-adv-x="532" />
<glyph unicode="+" horiz-adv-x="970" />
<glyph unicode="," horiz-adv-x="327" />
<glyph unicode="-" horiz-adv-x="903" />
<glyph unicode="." horiz-adv-x="337" />
<glyph unicode="/" d="M598 1255q0 70 50 120t120 50q31 7 95 10t161 3t161 -3t95 -10q70 0 120 -50t50 -120v-1484q0 -69 -46 -118t-114 -52q-1 0 -4.5 -1t-5.5 -1h-512q-2 0 -5.5 1t-4.5 1q-68 3 -114 52t-46 118v1484zM713 518h622v672h-622v-672zM895 213q0 -17 13 -30t30 -13h172 q17 0 29 13t12 30v170q0 19 -12 31t-29 12h-172q-18 0 -30.5 -12.5t-12.5 -30.5v-170z" />
<glyph unicode="0" d="M170 -45v426q0 142 43.5 270.5t121.5 234.5q57 78 132.5 142.5t164 110.5t188 71t204.5 25q142 0 270.5 -43.5t234.5 -121.5q78 -57 142.5 -132.5t110 -164t71 -188t25.5 -204.5v-426h-86v426q0 210 -103 385q-103 177 -280 280q-175 103 -385 103q-211 0 -386 -103 q-176 -104 -279 -280q-103 -175 -103 -385v-426h-86zM342 -215v682h127q53 0 91 -38t38 -91v-426q0 -52 -38 -90q-37 -37 -91 -37h-127zM1450 338q0 54 37 91q38 38 92 38h127v-682h-127q-55 0 -92 37t-37 90v426z" />
<glyph unicode="1" d="M170 637q0 71 51 121q51 51 121 51h340l86 170l24 44q8 14 25 28t37 14h340q15 0 27.5 -6t23.5 -20t17.5 -26t17.5 -34l86 -170h340q70 0 121 -51q51 -50 51 -121v-682q0 -71 -51 -120q-50 -50 -121 -50h-1364q-70 0 -122 50q-50 50 -50 120v682zM639 338 q0 -159 112 -271t273 -112q159 0 271 112t112 271q0 160 -112 272q-111 113 -271 113t-273 -113q-112 -112 -112 -272zM811 338q0 87 62 152q61 63 151 63q89 0 151 -63q62 -65 62 -152t-62 -151q-62 -62 -151 -62t-151 62q-62 64 -62 151zM1561 612q-12 -12 -18.5 -27.5 t-6.5 -32t6 -32t19 -28.5t28.5 -19t32 -6t32 6.5t27.5 18.5q25 26 25 60.5t-25 59.5t-59.5 25t-60.5 -25z" />
<glyph unicode="2" d="M86 979q0 35 24.5 60.5t59.5 25.5l172 -86h596q71 0 121 -50q51 -50 51 -120h-598q-46 0 -90 -12.5t-82 -35t-69.5 -54t-53.5 -70.5h-47q-35 0 -59.5 25.5t-24.5 60.5v256zM342 467q0 70 50 120t120 50h854q70 0 120 -50t50 -120v-342q0 -71 -50 -121q-49 -49 -120 -49 h-854q-71 0 -120 49q-50 50 -50 121v342zM537 441q-12 -12 -18.5 -28t-6.5 -32.5t6 -32t19 -27.5t28.5 -18t32 -6t32 6t27.5 18q25 25 24.5 59.5t-24.5 60.5q-25 26 -59.5 26t-60.5 -26zM1706 637l172 172q35 0 59.5 -25.5t24.5 -60.5v-512q0 -35 -24.5 -60.5t-59.5 -25.5 l-172 172v170q0 93 -45 170h45z" />
<glyph unicode="3" d="M170 -45v682q0 71 51 121q51 51 121 51h1364q70 0 121 -51q51 -50 51 -121v-682h-172v342h-1364v-342h-172zM512 125h1024v-512h-1024v512zM512 979v170h1024v-170h-1024zM1561 612q-12 -12 -18.5 -27.5t-6.5 -32t6 -32t19 -28.5t28.5 -19t32 -6t32 6.5t27.5 18.5 q25 26 25 60.5t-25 59.5t-59.5 25t-60.5 -25z" />
<glyph unicode="4" d="M176 536q0 16 1.5 46.5t3.5 75.5t5.5 88t7.5 85t10.5 88t15.5 97t20 95t22 81q8 28 22.5 51t37.5 41q46 37 104 37h172v-428l-172 -84v-684l172 -84v-428h-172q-62 0 -108 39q-23 20 -36.5 44.5t-21.5 53.5q-43 166 -63.5 349.5t-20.5 387.5v49zM768 -387v1708h938 q70 0 121 -51q51 -50 51 -121v-1364q0 -72 -51 -121q-51 -51 -121 -51h-938zM1004 -109q-2 -28 13 -48.5t38 -30t48.5 -6t44.5 24.5q21 18 24.5 43.5t-6 48.5t-30.5 38t-49 14q-35 -2 -58 -25.5t-25 -58.5zM1004 147q-2 -27 13.5 -48t38 -31t48 -6.5t44.5 24.5 q21 19 24.5 44.5t-6.5 48.5t-30.5 38t-48.5 14q-35 -2 -58 -25.5t-25 -58.5zM1004 403q-2 -27 13.5 -48t38 -31t48 -6.5t44.5 24.5q21 19 24.5 44.5t-6.5 48.5t-30.5 38t-48.5 14q-35 -2 -58 -25.5t-25 -58.5zM1260 -109q-2 -28 13 -48.5t38 -30t48.5 -6t44.5 24.5 q21 18 24.5 43.5t-6 48.5t-30.5 38t-49 14q-35 -2 -58 -25.5t-25 -58.5zM1260 147q-2 -27 13.5 -48t38 -31t48 -6.5t44.5 24.5q21 19 24.5 44.5t-6.5 48.5t-30.5 38t-48.5 14q-35 -2 -58 -25.5t-25 -58.5zM1260 403q-2 -27 13.5 -48t38 -31t48 -6.5t44.5 24.5 q21 19 24.5 44.5t-6.5 48.5t-30.5 38t-48.5 14q-35 -2 -58 -25.5t-25 -58.5zM1516 -109q-2 -28 13 -48.5t38 -30t48.5 -6t44.5 24.5q21 18 24.5 43.5t-6 48.5t-30.5 38t-49 14q-35 -2 -58 -25.5t-25 -58.5zM1516 147q-2 -27 13.5 -48t38 -31t48 -6.5t44.5 24.5 q21 19 24.5 44.5t-6.5 48.5t-30.5 38t-48.5 14q-35 -2 -58 -25.5t-25 -58.5zM1516 403q-2 -27 13.5 -48t38 -31t48 -6.5t44.5 24.5q21 19 24.5 44.5t-6.5 48.5t-30.5 38t-48.5 14q-35 -2 -58 -25.5t-25 -58.5z" />
<glyph unicode="5" d="M515 1294q0 35 11 65t37 56q51 51 122 51q2 0 4.5 -1t3.5 -1h668q1 0 3.5 1t4.5 1q71 0 122 -51q26 -26 37 -56t11 -65v-1654q0 -66 -47 -116q-23 -25 -51.5 -39.5t-61.5 -14.5h-704q-33 0 -61.5 14.5t-51.5 39.5q-47 50 -47 116v1654zM601 -188h852v1310h-852v-1310z M956 -289q-30 -30 -30 -70.5t30 -70.5t70.5 -30t70.5 30t30 70.5t-30 70.5t-70.5 30t-70.5 -30zM933 1294q0 -16 16 -16h156q16 0 16 16q0 19 -16 19h-156q-16 0 -16 -19z" />
<glyph unicode="6" d="M367 1239q0 37 22.5 60.5t59.5 23.5h1150q37 0 59.5 -23.5t22.5 -60.5v-1542q0 -37 -22.5 -59.5t-59.5 -22.5h-1150q-37 0 -59.5 22.5t-22.5 59.5v1542zM512 -215h1024v1364h-1024v-1364zM983 -315q0 -17 12 -29t29 -12t29 12t12 29q0 21 -13 31.5t-28 10.5t-28 -10.5 t-13 -31.5z" />
<glyph unicode="7" d="M256 82v940q0 32 27 58q29 26 59 26h1364q30 0 59 -26q27 -26 27 -58v-940l170 -170q0 -36 -23.5 -61t-60.5 -25h-1708q-37 0 -60.5 24t-23.5 62zM342 82h1364v940h-1364v-940zM784 -80q0 -8 27 -8h426q27 0 27 8q0 2 -2 2l-54 55q-7 7 -32 7h-304q-26 0 -30 -7l-56 -55z " />
<glyph unicode="8" d="M256 1167q0 28 19 47t47 19h1404q28 0 47 -19t19 -47v-1142q0 -28 -18.5 -47t-47.5 -19h-548l26 -203l43 -43v-6q-1 -4 -12.5 -6t-22.5 -3l-12 -1h-352q-45 0 -49 10v6l45 43l26 203h-548q-29 0 -47.5 19t-18.5 47v1142zM342 272h1364v877h-1364v-877zM993 166 q-12 -12 -12 -31t12 -31t31 -12t31 12t12 31t-12 31t-31 12t-31 -12z" />
<glyph unicode="9" d="M342 553h170v-172q0 -212 150 -362t362 -150t362 150t150 362v172h170v-172q0 -171 -79 -319q-77 -146 -215 -242t-302 -115v-94q112 -7 184 -30t72 -52v-86h-684v86q0 29 72 52t184 30v94q-165 19 -303 115q-136 94 -215 242q-78 148 -78 319v172zM682 1149 q0 141 100 241q101 101 242 101q140 0 241 -101t101 -241v-768q0 -140 -101 -241q-101 -99 -241 -99q-142 0 -242 99q-100 100 -100 241v768z" />
<glyph unicode=":" d="M170 893q0 71 51 121q51 51 121 51h621l-340 338l30 31l369 -369h4l369 369l30 -31l-340 -338h621q70 0 121 -51q51 -50 51 -121v-852q0 -72 -51 -121q-51 -51 -121 -51h-1364q-70 0 -121 51q-51 49 -51 121v852zM342 82q0 -17 12 -29t29 -12h940q17 0 30 12t13 29v768 q0 18 -12.5 30.5t-30.5 12.5h-940q-17 0 -29 -12t-12 -31v-768zM342 -215h1364v-86h-1364v86zM1622 338q53 0 90 37t37 92q0 54 -37 90q-37 37 -90 37q-55 0 -92 -37q-37 -36 -37 -90q0 -55 37 -92t92 -37zM1493 809q0 -55 37 -92t92 -37q53 0 90 37t37 92q0 52 -38 90 q-37 37 -89 37q-55 0 -92 -37t-37 -90z" />
<glyph unicode=";" d="M170 -45v1024h481l369 369l31 -29l-340 -340h1167v-1024h-1708zM338 467q0 -10 10 -10h281q10 0 10 10q0 12 -10 12v-2l-279 2h-2q-10 0 -10 -12zM340 424q0 -3 4 -6.5t8 -3.5h277q10 0 10 10q0 12 -10 12h-277q-4 0 -8 -4t-4 -8zM629 500q10 0 10 10t-10 10h-277 q-12 0 -12 -10t12 -10h277zM350 383q0 -12 10 -12v2l269 -2q10 0 10 12q0 10 -10 10h-269q-10 0 -10 -10zM629 543q10 0 10 10t-10 10h-269q-10 0 -10 -10t10 -10h269zM629 330q10 0 10 10t-10 10h-252q-12 0 -12 -10t12 -10h252zM629 586q10 0 10 10t-10 10h-252 q-12 0 -12 -10t12 -10h252zM629 287q10 0 10 10t-10 10h-230q-10 0 -10 -10t10 -10h230zM389 639q0 -12 10 -12v2l230 -2q10 0 10 12q0 10 -10 10h-230q-10 0 -10 -10zM629 244q10 0 10 10t-10 10h-195q-12 0 -12 -10t12 -10h195zM422 680q0 -3 4 -6.5t8 -3.5h195 q10 0 10 10q0 12 -10 12h-195q-4 0 -8 -4t-4 -8zM471 211q0 -10 12 -10h146q10 0 10 10q0 12 -10 12v-2l-146 2q-12 0 -12 -12zM471 723q0 -10 12 -10h146q10 0 10 10q0 12 -10 12v-2l-146 2q-12 0 -12 -12zM559 168q0 -10 10 -10h60q10 0 10 10q0 12 -10 12h-60 q-10 0 -10 -12zM629 756q10 0 10 10t-10 10h-60q-10 0 -10 -10t10 -10h60zM682 168q0 -3 4 -6.5t8 -3.5h60q10 0 10 10q0 12 -10 12h-60q-4 0 -8 -4t-4 -8zM682 211q0 -10 12 -10h146q10 0 10 10q0 12 -10 12v-2l-146 2q-4 0 -8 -3.5t-4 -8.5zM889 244q10 0 10 10t-10 10 h-195q-12 0 -12 -10t12 -10h195zM924 287q10 0 10 10t-10 10h-230q-12 0 -12 -10t12 -10h230zM946 330q10 0 10 10t-10 10h-252q-12 0 -12 -10t12 -10h252zM682 383q0 -5 4 -8.5t8 -3.5v2l267 -2h2q10 0 10 12q0 10 -10 10h-269q-12 0 -12 -10zM682 424q0 -3 4 -6.5t8 -3.5 h277q10 0 10 10q0 12 -10 12h-277q-4 0 -8 -4t-4 -8zM682 467q0 -10 12 -10h281q10 0 10 10q0 4 -3.5 8t-6.5 4l-2 -2l-279 2q-4 0 -8 -3.5t-4 -8.5zM971 500q10 0 10 10t-10 10h-277q-12 0 -12 -10t12 -10h277zM963 543q10 0 10 10t-10 10h-269q-12 0 -12 -10t12 -10h269z M946 586q10 0 10 10t-10 10h-252q-12 0 -12 -10t12 -10h252zM682 639q0 -5 4 -8.5t8 -3.5v2l230 -2q10 0 10 12q0 10 -10 10h-230q-12 0 -12 -10zM682 680q0 -3 4 -6.5t8 -3.5h195q10 0 10 10q0 12 -10 12h-195q-4 0 -8 -4t-4 -8zM682 723q0 -10 12 -10h146q10 0 10 10 q0 12 -10 12v-2l-146 2q-4 0 -8 -3.5t-4 -8.5zM754 756q10 0 10 10t-10 10h-60q-12 0 -12 -10t12 -10h60zM1110 510q0 -19 12 -31t29 -12q19 0 31 12t12 31q0 18 -12.5 30.5t-30.5 12.5q-17 0 -29 -13t-12 -30zM1110 637q0 -17 12 -30t29 -13q18 0 30.5 12.5t12.5 30.5 q0 19 -12 31t-31 12q-17 0 -29 -12t-12 -31zM1110 766q0 -19 12 -31t29 -12q19 0 31 12t12 31q0 18 -12.5 30.5t-30.5 12.5q-17 0 -29 -13t-12 -30zM1249 242q-12 -12 -12 -31t12 -31t31 -12t31 12t12 31t-12 31t-31 12t-31 -12zM1407 168q21 -2 31.5 12t10.5 31t-10.5 31 t-31.5 12q-17 0 -29 -12t-12 -31t12 -31t29 -12zM1561 271q-12 -12 -18.5 -27.5t-6.5 -32t6 -32.5t19 -29q26 -26 61 -25t59 25q25 26 24.5 60.5t-24.5 60.5q-25 26 -59.5 26t-60.5 -26zM1536 381h170v428h-170v-428z" />
<glyph unicode="&#x3c;" d="M170 -207q0 96 104 174q105 78 242 78q100 0 166 -51v1071l1024 170v-1237q0 -72 -107 -143q-106 -70 -241 -70q-106 0 -177 50t-71 128q0 88 87 162q85 73 210 88q8 0 24 1t23 1q98 0 168 -49v801l-854 -144v-995q0 -74 -108 -144q-110 -71 -240 -71q-106 0 -178 51 t-72 129z" />
<glyph unicode="=" d="M1493 573h129v129l84 84l-43 -84v-172h-170l-86 -43zM1706 487v299h-299v-299h299zM1706 147v299h-299v-299h299zM1493 231h129v129l84 86l-43 -86v-170h-170l-86 -43zM1366 829v299h-299v-299h299zM1151 915h129v127l86 86l-43 -86v-170h-172l-84 -43zM1366 487v299 h-299v-299h299zM1151 573h129v129l86 84l-43 -84v-172h-172l-84 -43zM1151 -301h129v127l86 86l-43 -86v-170h-172l-84 -43zM1067 -387h299v299h-299v-299zM811 -301h127v127l86 86l-43 -86v-170h-170l-86 -43zM725 -387h299v299h-299v-299zM1024 -45v299h-299v-299h299z M811 41h127v127l86 86l-43 -86v-170h-170l-86 -43zM469 -301h129v127l84 86l-43 -86v-170h-170l-86 -43zM383 -387h299v299h-299v-299z" />
<glyph unicode="&#x3e;" d="M20 -12q0 7 1 13.5t2 14.5l63 512q54 -100 148 -166q95 -65 206 -65q139 0 248 85q110 86 146 218q-41 -116 -140 -189q-97 -73 -225 -73q-159 0 -271 112t-112 273q0 159 112 271t271 112q170 0 287 -127h536q117 127 287 127q159 0 271 -112t112 -271q0 -160 -113 -273 q-112 -112 -270 -112q-121 0 -222 71q-97 70 -138 185q37 -127 144 -208q108 -81 243 -81q111 0 206 66q96 67 150 168l63 -523q1 -8 2 -14.5t1 -13.5q0 -94 -69 -161q-68 -67 -169 -67q-42 0 -81 14t-73 38.5t-62.5 59.5t-49.5 77l-262 518h-476l-262 -518q-19 -37 -47 -70 t-68 -62q-78 -57 -151 -57h-2q-100 0 -167 67q-69 67 -69 161zM233 659h129l66 64l-66 63h-129v-127zM406 487h126v129l-63 66l-63 -66v-129zM406 829l63 -65l63 65v129h-126v-129zM512 723l63 -64h130v127h-130zM854 723q0 -21 20 -21h107q11 0 16.5 6.5t5.5 14t-5.5 14 t-16.5 6.5h-107q-20 0 -20 -20zM1174 702q20 0 20 21q0 20 -20 20h-107q-11 0 -16.5 -6.5t-5.5 -14t5.5 -14t16.5 -6.5h107zM1436 651q30 0 50.5 21t20.5 51t-20.5 51t-50.5 21q-29 0 -49.5 -21.5t-20.5 -50.5t20.5 -50.5t49.5 -21.5zM1507 582q0 -30 21 -51t51 -21t51 21 t21 51q0 29 -21 49t-51 20t-51 -20t-21 -49zM1507 864q0 -29 21 -49t51 -20t51 20t21 49q0 30 -21 51t-51 21t-51 -21t-21 -51zM1671 774q-20 -21 -20 -51t20 -51t49 -21t50 21q22 22 22 50.5t-22 50.5t-50.5 22t-48.5 -21z" />
<glyph unicode="?" d="M426 893q0 123 47 232.5t128 190.5t190.5 128t232.5 47t232.5 -47t190.5 -128t128 -190.5t47 -232.5q0 -206 -127 -366q-126 -161 -321 -212q-26 -7 -45 -27t-19 -46v-117h-342v172q19 126 109 222q90 94 215 126v2q82 22 135 90q53 71 53 156q0 106 -75 181t-181 75 t-181 -75t-75 -181h-342zM757 -482q-75 75 -75 181t75 181t181 75t181 -75t75 -181t-75 -181t-181 -75t-181 75z" />
<glyph unicode="@" d="M170 -430v1792h1708v-1792h-1708zM299 -25h170v158h-170v-158zM299 -143v-158h170v158h-170zM299 250h170v158h-170v-158zM299 526h170v158h-170v-158zM299 801h170v157h-170v-157zM299 1077h170v158h-170v-158zM598 -258q0 -17 12 -30t29 -13h768q18 0 30.5 12.5 t12.5 30.5v627q0 15 -12.5 27t-30.5 12h-768q-17 0 -29 -12t-12 -27v-627zM598 565q0 -15 12 -27t29 -12h768q18 0 30.5 12t12.5 27v627q0 18 -12.5 30.5t-30.5 12.5h-768q-17 0 -29 -13t-12 -30v-627zM1579 -25h170v158h-170v-158zM1579 -143v-158h170v158h-170zM1579 250 h170v158h-170v-158zM1579 526h170v158h-170v-158zM1579 801h170v157h-170v-157zM1579 1077h170v158h-170v-158z" />
<glyph unicode="A" d="M86 -301v1536h1876v-1536h-1876zM170 -215h1708v1364h-1708v-1364zM426 -45l469 469l299 -299l299 598l213 -426v-342h-1280zM598 936q70 0 120 -50t50 -120t-50 -122q-50 -50 -120 -50t-121 51t-51 121t50 120q52 50 122 50z" />
<glyph unicode="B" d="M111 373q0 167 56.5 299t174.5 235q106 94 252 145.5t321 51.5v-68q-234 -46 -354 -151q-121 -106 -121 -324q0 -124 39 -194q49 37 102 58t128 21q132 0 204 -90q70 -88 70 -188q0 -167 -117 -252q-118 -88 -272 -88q-226 0 -356 162q-127 160 -127 383zM1051 373 q0 169 67 301q71 141 178 235t260 146q76 26 154 37.5t160 11.5v-68q-241 -47 -357 -151q-120 -107 -120 -324q0 -135 41 -194q97 79 227 79q133 0 205 -90q71 -89 71 -188q0 -164 -118 -252t-271 -88q-229 0 -364 162q-133 157 -133 383z" />
<glyph unicode="C" d="M111 766q0 169 116 252q119 86 273 86q227 0 362 -160q69 -81 102 -176t33 -207q0 -315 -245 -534q-98 -89 -253 -145q-150 -54 -321 -54v70q235 47 357 151q120 103 120 322q0 134 -41 196q-54 -41 -106 -60.5t-123 -19.5q-135 0 -205 91q-69 87 -69 188zM1065 766 q0 166 117 252q119 86 272 86q227 0 354 -160q129 -164 129 -383q0 -326 -231 -534q-51 -46 -114.5 -82.5t-137.5 -62.5t-155.5 -40t-168.5 -14v70q237 46 357 151q121 106 121 322q0 125 -41 196q-101 -80 -228 -80q-134 0 -204 91q-70 88 -70 188z" />
<glyph unicode="D" d="M100 449v43l623 337v-151l-381 -211l381 -209v-152zM682 -131l524 1196h160l-524 -1196h-160zM1323 106v152l379 209l-379 211v151l621 -337v-43z" />
<glyph unicode="E" d="M236 297h296v-684h-296v684zM662 -387v1280h299v-1280h-299zM1087 -387v1708h299v-1708h-299zM1516 -387v1024h296v-1024h-296z" />
<glyph unicode="F" d="M1004 467l602 -604q-118 -118 -271.5 -184t-330.5 -66q-143 0 -271 43.5t-234 121.5q-78 58 -142.5 133.5t-110.5 164t-71 187.5t-25 204q0 142 43.5 270t121.5 234q58 79 133.5 144t163.5 111t187 71t205 24v-854zM1044 510v852q170 0 332 -68q160 -68 273 -181 t181 -272q68 -162 68 -331h-854zM1174 424h854q0 -177 -66 -330.5t-184 -271.5z" />
<glyph unicode="G" d="M170 -387v1708h172v-1536h1536v-172h-1708zM406 104v21h20v-21h-20zM406 446v21h20v-21h-20zM406 786v23h20v-23h-20zM406 1128v21h20v-21h-20zM426 227q0 32 27 49l395 396q17 26 49 26q31 0 47 -22l60 -60v21h20v-21h-20l170 -170v21h20v-21h-20l20 -22l582 582 q14 14 32 16.5t33.5 -4t26 -20.5t10.5 -33q0 -23 -18 -45l-623 -621q-18 -18 -43 -18q-29 0 -45 22l-143 143h-2v3l-107 104l-369 -369q-9 -9 -20 -12.5t-23 -3.5q-25 0 -42 17t-17 42zM492 104v21h20v-21h-20zM492 446v21h20v-21h-20zM492 786v23h20v-23h-20zM492 1128v21 h20v-21h-20zM575 104v21h23v-21h-23zM575 446v21h23v-21h-23zM575 786v23h23v-23h-23zM575 1128v21h23v-21h-23zM662 18v23h20v-23h-20zM662 -45h20v-21h-20v21zM662 104v21h20v-21h-20zM662 -131h20v-21h-20v21zM662 190v21h20v-21h-20zM662 274v23h20v-23h-20zM662 530v23 h20v-23h-20zM662 616v21h20v-21h-20zM662 702v21h20v-21h-20zM662 786v23h20v-23h-20zM662 872v21h20v-21h-20zM662 958v21h20v-21h-20zM662 1042v23h20v-23h-20zM662 1128v21h20v-21h-20zM662 1214v21h20v-21h-20zM748 104v21h20v-21h-20zM748 786v23h20v-23h-20zM748 1128 v21h20v-21h-20zM831 104v21h23v-21h-23zM831 446v21h23v-21h-23zM831 786v23h23v-23h-23zM831 1128v21h23v-21h-23zM918 104v21h20v-21h-20zM918 446v21h20v-21h-20zM918 786v23h20v-23h-20zM918 1128v21h20v-21h-20zM1004 18v23h20v-23h-20zM1004 -45h20v-21h-20v21z M1004 104v21h20v-21h-20zM1004 -131h20v-21h-20v21zM1004 190v21h20v-21h-20zM1004 274v23h20v-23h-20zM1004 360v21h20v-21h-20zM1004 702v21h20v-21h-20zM1004 786v23h20v-23h-20zM1004 872v21h20v-21h-20zM1004 958v21h20v-21h-20zM1004 1042v23h20v-23h-20zM1004 1128 v21h20v-21h-20zM1004 1214v21h20v-21h-20zM1087 104v21h23v-21h-23zM1087 786v23h23v-23h-23zM1087 1128v21h23v-21h-23zM1174 104v21h20v-21h-20zM1174 786v23h20v-23h-20zM1174 1128v21h20v-21h-20zM1260 104v21h20v-21h-20zM1260 786v23h20v-23h-20zM1260 1128v21h20v-21 h-20zM1343 18v23h23v-23h-23zM1343 -45h23v-21h-23v21zM1343 104v21h23v-21h-23zM1343 -131h23v-21h-23v21zM1343 190v21h23v-21h-23zM1343 274v23h23v-23h-23zM1343 360v21h23v-21h-23zM1343 616v21h23v-21h-23zM1343 702v21h23v-21h-23zM1343 786v23h23v-23h-23zM1343 872 v21h23v-21h-23zM1343 958v21h23v-21h-23zM1343 1042v23h23v-23h-23zM1343 1128v21h23v-21h-23zM1343 1214v21h23v-21h-23zM1430 104v21h20v-21h-20zM1430 446v21h20v-21h-20zM1430 786v23h20v-23h-20zM1430 1128v21h20v-21h-20zM1516 104v21h20v-21h-20zM1516 446v21h20v-21 h-20zM1516 786v23h20v-23h-20zM1516 1128v21h20v-21h-20zM1599 104v21h23v-21h-23zM1599 446v21h23v-21h-23zM1599 1128v21h23v-21h-23zM1686 18v23h20v-23h-20zM1686 -45h20v-21h-20v21zM1686 104v21h20v-21h-20zM1686 -131h20v-21h-20v21zM1686 190v21h20v-21h-20z M1686 274v23h20v-23h-20zM1686 360v21h20v-21h-20zM1686 446v21h20v-21h-20zM1686 530v23h20v-23h-20zM1686 616v21h20v-21h-20zM1686 702v21h20v-21h-20zM1686 958v21h20v-21h-20zM1686 1042v23h20v-23h-20zM1686 1128v21h20v-21h-20zM1686 1214v21h20v-21h-20zM1772 104 v21h20v-21h-20zM1772 446v21h20v-21h-20zM1772 786v23h20v-23h-20zM1772 1128v21h20v-21h-20z" />
<glyph unicode="H" d="M256 -471v1876h1536v-1876h-1536zM342 -45h1364v1366h-1364v-1366zM426 41l385 469l299 -299l297 598l215 -428v-340h-1196zM682 1149q71 0 121 -50q51 -50 51 -120q0 -71 -51 -120q-50 -50 -121 -50t-120 49q-50 50 -50 121q0 70 50 120t120 50z" />
<glyph unicode="I" d="M170 -387v1708h172v-1536h1536v-172h-1708zM406 446v21h20v-21h-20zM406 786v23h20v-23h-20zM406 1128v21h20v-21h-20zM426 -129v356q0 32 27 49l395 396q17 26 49 26q31 0 47 -22l60 -60v21h20v-21h-20l170 -170v21h20v-21h-20l20 -22l582 582q14 14 32 16.5t33.5 -4 t26 -20.5t10.5 -33v-4l-2 -1090h-1450zM492 446v21h20v-21h-20zM492 786v23h20v-23h-20zM492 1128v21h20v-21h-20zM575 446v21h23v-21h-23zM575 786v23h23v-23h-23zM575 1128v21h23v-21h-23zM662 530v23h20v-23h-20zM662 616v21h20v-21h-20zM662 702v21h20v-21h-20zM662 786 v23h20v-23h-20zM662 872v21h20v-21h-20zM662 958v21h20v-21h-20zM662 1042v23h20v-23h-20zM662 1128v21h20v-21h-20zM662 1214v21h20v-21h-20zM748 786v23h20v-23h-20zM748 1128v21h20v-21h-20zM831 786v23h23v-23h-23zM831 1128v21h23v-21h-23zM918 786v23h20v-23h-20z M918 1128v21h20v-21h-20zM1004 702v21h20v-21h-20zM1004 786v23h20v-23h-20zM1004 872v21h20v-21h-20zM1004 958v21h20v-21h-20zM1004 1042v23h20v-23h-20zM1004 1128v21h20v-21h-20zM1004 1214v21h20v-21h-20zM1087 786v23h23v-23h-23zM1087 1128v21h23v-21h-23zM1174 786 v23h20v-23h-20zM1174 1128v21h20v-21h-20zM1260 786v23h20v-23h-20zM1260 1128v21h20v-21h-20zM1343 616v21h23v-21h-23zM1343 702v21h23v-21h-23zM1343 786v23h23v-23h-23zM1343 872v21h23v-21h-23zM1343 958v21h23v-21h-23zM1343 1042v23h23v-23h-23zM1343 1128v21h23v-21 h-23zM1343 1214v21h23v-21h-23zM1430 786v23h20v-23h-20zM1430 1128v21h20v-21h-20zM1516 786v23h20v-23h-20zM1516 1128v21h20v-21h-20zM1599 1128v21h23v-21h-23zM1686 958v21h20v-21h-20zM1686 1042v23h20v-23h-20zM1686 1128v21h20v-21h-20zM1686 1214v21h20v-21h-20z M1772 1128v21h20v-21h-20z" />
<glyph unicode="J" d="M57 430q0 52 8.5 95.5t20.5 60.5q0 4 7 11t70.5 21t178.5 19q57 38 106.5 67.5t92.5 51.5q86 44 113 48l28 5h428q3 0 10 -1.5t33 -12.5q14 -7 29 -14t30 -16q33 -20 87.5 -62t117.5 -99q57 -8 107 -16.5t96 -18.5q92 -19 150.5 -37t102.5 -37q32 -14 53.5 -26t35 -22.5 t21 -18.5t11.5 -13l3 -7q6 -23 6 -66q0 -34 -6 -80q-21 -23 -50.5 -36t-48.5 -14l-20 -1h-27q2 12 3 21.5t1 17.5q0 70 -50 120t-119 50q-70 0 -120 -50t-50 -120q0 -31 4 -39h-822q2 12 3 21.5t1 17.5q0 70 -50 120t-120 50t-122 -50q-50 -50 -50 -120q0 -5 1.5 -14.5 t3.5 -24.5h-23q-53 0 -150 35q-93 35 -106 51q-29 29 -29 133zM403 231q0 54 37 91q38 38 92 38q52 0 90 -38q37 -37 37 -91q0 -52 -38 -90q-37 -37 -89 -37q-55 0 -92 37t-37 90zM1556 231q0 53 38 91t92 38q53 0 89 -38q37 -37 37 -91q0 -53 -37 -90t-89 -37q-55 0 -92 37 q-38 38 -38 90z" />
<glyph unicode="K" d="M86 250v4v10q0 81 60 140q64 63 153 63h299q88 0 153 -63q60 -59 60 -140v-10v-4h-43v4v8q0 65 -48 112q-53 50 -122 50h-299q-70 0 -123 -50q-47 -47 -47 -110v-10v-4h-43zM86 553v512h1364v-512h-1364zM170 254q0 53 37 90t92 37q52 0 90 -38q37 -37 37 -89 q0 -55 -37 -92t-90 -37q-55 0 -92 37t-37 92zM469 254q0 53 37 90t92 37q51 0 89 -38t38 -89q0 -55 -37 -92t-90 -37q-55 0 -92 37t-37 92zM1024 254q0 88 62 150q63 63 151 63h299v342h29t36 1t34 1h22q88 0 142.5 -4.5t66.5 -8.5l12 -5q25 -18 54 -128q30 -110 30 -173 v-281h-86v43v8q0 65 -48 112q-53 50 -122 50q-30 0 -56.5 -9.5t-48 -26t-37 -40t-22.5 -51.5h-139q-15 57 -60.5 92t-105.5 35q-69 0 -122 -50q-48 -47 -48 -112v-8h-43zM1110 254q0 52 37 89q38 38 90 38q54 0 91 -37q38 -38 38 -90q0 -54 -38 -92q-37 -37 -91 -37 q-53 0 -90 37t-37 92zM1579 254q0 52 37 89q38 38 90 38q54 0 91 -37q38 -38 38 -90q0 -54 -38 -92q-37 -37 -91 -37q-53 0 -90 37t-37 92z" />
<glyph unicode="L" d="M86 82q0 160 112 272q113 113 271 113q159 0 272 -113t113 -272q0 -157 -113 -270t-272 -113q-158 0 -271 113q-112 112 -112 270zM170 82q0 -123 88 -210t211 -87q124 0 211 87q88 87 88 210q0 124 -87 211q-87 88 -212 88q-123 0 -211 -88q-88 -87 -88 -211zM594 651 q0 68 57 125l310 309q17 17 40 17q29 0 43 -17q8 -11 24 -37.5t42 -68.5l117 -191h223q28 0 47 -18.5t19 -46.5t-19 -47t-47 -19h-250q-41 0 -57 25l-119 121l-137 -137l211 -115q57 -32 57 -78q0 -7 -2 -16.5t-2 -10.5l-41 -405q0 -18 -7 -33.5t-18.5 -27t-27 -18.5 t-33.5 -7t-33.5 7t-27 18.5t-18.5 27t-7 33.5l43 362l-307 132q-38 17 -59 48t-21 68zM1274 1278q59 0 102 -43t43 -102q0 -60 -43 -103q-42 -43 -102 -43q-62 0 -105 43t-43 103t43 102q43 43 105 43zM1194 82q0 160 112 272q113 113 273 113q157 0 270 -113t113 -272 q0 -157 -113 -270t-270 -113q-160 0 -273 113q-112 112 -112 270zM1280 82q0 -123 87 -210q88 -87 212 -87q122 0 211 87q88 87 88 210q0 124 -88 211q-88 88 -211 88q-125 0 -212 -88q-87 -87 -87 -211z" />
<glyph unicode="M" d="M86 -88q0 124 87 211q87 88 210 88q125 0 212 -88q87 -87 87 -211q0 -123 -88 -211q-87 -88 -211 -88q-123 0 -210 88t-87 211zM123 401q0 21 18 33q70 60 144 60q22 0 45.5 -6.5t52.5 -18.5l414 -176v-203l-428 287q-38 26 -88 26q-49 0 -93 -26q-16 -10 -28 -10 q-15 0 -26 10t-11 24zM170 -88q0 -88 62 -150q63 -63 151 -63q89 0 152 63q63 61 63 150t-63 151q-65 62 -152 62t-151 -62q-62 -62 -62 -151zM449 561q0 61 53 129q20 26 52.5 69.5t79.5 103.5l107 138q16 21 50 21q21 0 34 -10l76 -99l139 -176l222 27l2 2h8q27 0 46 -19 t19 -47q0 -25 -16.5 -43.5t-42.5 -21.5l-248 -31h-8q-35 0 -51 19l-133 106l-119 -154l223 -88q34 -14 50 -34t16 -45q0 -4 -1 -11t-1 -8h2v-420q0 -34 -22.5 -59t-57.5 -25q-32 0 -56.5 22t-27.5 54v365l-322 133q-73 30 -73 102zM786 1155q0 4 1 12.5t1 12.5q11 71 62 114 q52 45 121 45q5 0 13.5 -1t12.5 -1q66 -9 109 -58q45 -51 49 -112q-5 2 -30.5 10t-73.5 21q-10 2 -17 2q-20 0 -36.5 -12.5t-22.5 -32.5q0 -3 -1 -7.5t-1 -6.5q0 -38 47 -62l46 -24l67 -35q-17 -47 -35 -62l-297 129q-15 37 -15 68zM1061 -70v476l299 77l72 -166zM1419 623 q12 0 25.5 -12t17.5 -21q2 -12 156 -334l-90 -27l-139 301h-107q-26 0 -39.5 14.5t-13.5 32t13.5 32t39.5 14.5h137zM1366 -88q0 124 87 211q87 88 210 88q125 0 212 -88q87 -87 87 -211q0 -123 -88 -211q-87 -88 -211 -88q-123 0 -210 88t-87 211zM1450 -88q0 -88 62 -150 q63 -63 151 -63q89 0 152 63q63 61 63 150t-63 151q-65 62 -152 62t-151 -62q-62 -62 -62 -151zM1530 537q55 28 127 28q44 0 88 -18q13 -8 25 -17.5t18 -14.5l6 -5q16 -10 16 -31q0 -14 -10.5 -24.5t-23.5 -10.5q-9 0 -19 7q-29 20 -71 20q-59 0 -99 -37q-20 30 -33 55.5 t-24 47.5z" />
<glyph unicode="N" d="M510 -215v1364l1182 -682z" />
<glyph unicode="O" d="M342 -215v1364h512v-1364h-512zM1194 -215v1364h512v-1364h-512z" />
<glyph unicode="P" d="M342 -215v1364h1364v-1364h-1364z" />
<glyph unicode="Q" d="M170 -215v1364l1180 -682zM1536 -215v1364h342v-1364h-342z" />
<glyph unicode="R" d="M170 -215v1364h342v-1364h-342zM698 467l1180 682v-1364z" />
<glyph unicode="S" d="M170 -43v1024l885 -512zM1057 -43v1024l885 -512z" />
<glyph unicode="T" d="M106 469l885 512v-1024zM993 469l885 512v-1024z" />
<glyph unicode="U" d="M170 297v297q0 160 112 272q113 113 273 113h553v215l588 -342l-588 -342v213h-553q-54 0 -92 -38q-37 -37 -37 -91v-148zM352 82l588 342v-213h553q54 0 91 37q38 38 38 90v149l256 150v-299q0 -158 -113 -271q-112 -112 -272 -112h-553v-215z" />
<glyph unicode="V" d="M170 -258q0 53 39 92l938 938q-37 73 -37 164q0 87 32.5 158t85.5 121.5t122 78t143 27.5q96 0 168.5 -38t120.5 -93l-426 -115l-51 -188l139 -139l426 114l-6 -24q-16 -65 -52 -117.5t-85.5 -89.5t-109.5 -57.5t-124 -20.5q-91 0 -164 37l-938 -938q-39 -39 -92 -39 q-51 0 -90 39t-39 90z" />
<glyph unicode="W" d="M358 313q-31 154 0 308l-213 176q28 75 66.5 140.5t87.5 125.5l258 -98q113 107 268 155l45 273q76 12 154 12q77 0 154 -12l45 -273q155 -48 268 -155l258 98q49 -60 87.5 -125.5t66.5 -140.5l-213 -176q31 -154 0 -308l213 -176q-28 -75 -66.5 -140.5t-87.5 -125.5 l-258 98q-113 -107 -268 -155l-45 -273q-77 -12 -154 -12q-78 0 -154 12l-45 273q-155 48 -268 155l-258 -98q-49 60 -87.5 125.5t-66.5 140.5zM782 708q-100 -100 -100 -241q0 -142 100 -242t242 -100q141 0 241 100q101 101 101 242q0 140 -101 241t-241 101 q-141 0 -242 -101z" />
<glyph unicode="X" d="M115 698q27 114 94 234l262 -66q63 88 143 148l-69 260q107 64 231 98l139 -231q23 4 50.5 6t58.5 2q46 0 96 -6l135 233q114 -27 234 -94l-66 -262q88 -63 148 -143l260 69q64 -107 98 -231l-231 -140q4 -23 6 -50t2 -58q0 -47 -6 -96l233 -135q-27 -114 -94 -234 l-262 66q-63 -88 -143 -148l69 -260q-107 -64 -231 -98l-139 231q-23 -4 -50.5 -6t-58.5 -2q-47 0 -96 6l-135 -233q-114 27 -234 94l66 262q-88 63 -148 143l-260 -69q-64 107 -98 231l231 139q-4 23 -6 50.5t-2 58.5q0 46 6 96zM682 467q0 -63 24.5 -124.5t69.5 -110 t108 -78t140 -29.5q63 0 124.5 24.5t110 69.5t78 108t29.5 140q0 63 -24.5 124.5t-69.5 110t-108 78t-140 29.5q-63 0 -124.5 -24.5t-110 -69.5t-78 -108t-29.5 -140z" />
<glyph unicode="Y" d="M305 729v16q0 57 14 115l-137 105q28 72 78 141l162 -64q20 22 45.5 42.5t56.5 39.5l-22 172q42 16 79.5 27t73.5 16l70 -157h16q59 0 115 -15l105 138q72 -29 141 -78l-64 -162q23 -22 44 -47.5t38 -54.5l172 22q16 -38 26.5 -77t16.5 -77l-157 -71v-15q0 -59 -15 -114 l137 -105q-14 -37 -33 -72t-44 -69l-162 64q-45 -48 -103 -82l23 -172q-38 -16 -77 -26.5t-77 -16.5l-71 157h-15q-59 0 -114 15l-105 -138q-72 28 -141 78l63 162q-22 20 -42.5 45.5t-39.5 56.5l-172 -22q-16 42 -27 79.5t-16 73.5zM522 745q0 -97 66 -158q67 -61 153 -61 q95 0 157 66q63 67 63 153q0 18 -11 60q-20 71 -79 115q-59 45 -130 45q-17 0 -59 -11q-70 -19 -116 -79q-44 -59 -44 -130zM1116 -8q-4 27 -6 46.5t-2 31.5q0 14 2 33t6 44l-106 89q27 74 77 133l130 -50q61 58 135 78l22 138q37 6 76 6q40 0 78 -6l22 -138q76 -21 136 -78 l129 50q50 -59 77 -133l-108 -89q10 -37 10 -77q0 -39 -10 -78l108 -88q-13 -34 -32 -67.5t-45 -65.5l-129 49q-62 -53 -136 -78l-22 -137q-38 -6 -78 -6q-39 0 -76 6l-22 137q-74 22 -135 78l-130 -49q-26 32 -45 65.5t-32 67.5zM1450 -100q72 0 122 50t50 120 q0 71 -50 121q-50 51 -122 51q-71 0 -120 -51q-50 -50 -50 -121q0 -70 50 -120t120 -50z" />
<glyph unicode="Z" d="M291 608q0 18 8 29l256 342q-18 18 -18 41q0 11 4.5 22.5t8.5 17.5l5 5q69 69 109.5 118.5t60.5 71.5v193q38 -26 62 -51t38.5 -46t20.5 -38t7 -26l1 -9q96 0 187 -32q88 -31 151.5 -83t115.5 -122t85.5 -145.5t56.5 -154.5t33 -146.5t10 -127.5v-469h-213 q-26 0 -42 -4.5t-25.5 -10.5t-13.5 -12.5t-5 -10.5v-5q0 -12 10 -22q8 -8 25.5 -14.5t50.5 -6.5q15 0 24 -12.5t9 -30.5q0 -16 -9.5 -29.5t-23.5 -13.5q-26 0 -42 -4t-25.5 -10t-13.5 -12.5t-5 -10.5v-4q0 -12 10 -22q8 -8 25.5 -14.5t50.5 -6.5h170q5 0 14 -0.5t31 -7.5 q14 -4 29 -13t27 -23.5t20 -35.5t8 -49v-170h-1110v170q0 38 13.5 62.5t32 39t38 20t31.5 6.5l14 1h170q25 0 41.5 4.5t26 10.5t13.5 12.5t5 10.5v5q0 11 -10 20q-8 8 -26 14.5t-50 6.5q-14 0 -23.5 13.5t-9.5 29.5q0 18 9 30.5t24 12.5q25 0 41.5 4.5t26 10.5t13.5 12.5 t5 10.5v5q0 11 -10 21q-8 8 -26 15t-50 7h-170q-37 0 -60 32t-24 64l-2 31q0 2 0.5 5.5t1.5 8.5t7 16.5t17 27t26 34t34 37.5l297 299q29 29 29 59q0 17 -7 34t-15 26l-7 8q-15 18 -43 18q-23 0 -41 -18l-256 -213q-6 -7 -15 -11t-14 -4l-6 -1q-15 0 -23 4q-9 3 -17.5 10.5 t-10.5 21.5q-16 -22 -41 -22q-18 0 -39.5 11.5t-34.5 22.5l-12 11q-51 48 -51 98z" />
<glyph unicode="[" d="M213 197q-45 134 -44.5 270t44.5 269q32 97 84.5 182t121.5 154t153.5 121.5t181.5 84.5q133 45 269.5 45t269.5 -45q96 -32 181 -84.5t154.5 -122t122 -154.5t84.5 -181q45 -133 45 -269.5t-45 -269.5q-32 -97 -84.5 -181.5t-121.5 -153.5t-154 -121.5t-182 -84.5 q-133 -44 -269 -44.5t-270 44.5q-96 32 -180.5 84.5t-154 122t-122 154t-84.5 180.5zM396 732q-55 -129 -55 -265t55 -266q108 -254 362 -362q130 -55 266 -55t265 55q255 108 363 362q55 130 54.5 266t-54.5 265q-108 255 -363 363q-129 54 -265 54.5t-266 -54.5 q-254 -108 -362 -363zM426 446v41h172v-41h-172zM907 436l299 516l148 -84l-213 -370l221 -127l-86 -150zM1004 41h40v-172h-40v172zM1004 893v172h40v-172h-40zM1493 446v41h170v-41h-170z" />
<glyph unicode="\" d="M170 680q0 172 86 321q85 148 233 234q149 86 322 86q171 0 320 -86q147 -85 233 -234t86 -321q0 -171 -82 -313l461 -461q49 -49 49 -121q0 -35 -11.5 -65t-37.5 -56t-56 -37.5t-65 -11.5q-72 0 -121 49l-461 461q-146 -84 -315 -84q-174 0 -322 85q-147 86 -233 233 q-86 149 -86 321zM342 680q-1 -63 15.5 -122t47.5 -111.5t74.5 -95.5t96 -74.5t112.5 -48.5t123 -17t122 17t111.5 48.5t95.5 74.5t74.5 95.5t48.5 111.5t17 122q0 96 -38 182t-102 150.5t-149.5 101t-179.5 35.5q-100 -2 -181.5 -35t-150.5 -102t-102 -150.5t-35 -181.5z " />
<glyph unicode="]" d="M170 -215q0 70 51 121l459 461q-82 148 -82 313q0 176 85 321q85 148 233 234q149 86 321 86t321 -86q148 -86 234 -234q86 -149 86 -321t-86 -321q-86 -148 -234 -233q-145 -85 -321 -85q-167 0 -315 84l-459 -461q-26 -26 -56 -37.5t-65 -11.5q-72 0 -121 49 q-51 54 -51 121zM768 680q0 -63 17 -122t48.5 -111.5t74.5 -95.5t95.5 -74.5t111.5 -48.5t122 -17q95 0 180.5 38t150 102t102.5 149t38 180q0 96 -38 181t-102.5 149t-150 101.5t-180.5 37.5t-180 -37.5t-149 -101.5t-102 -149t-38 -181z" />
<glyph unicode="^" d="M170 680q0 172 86 321q85 148 233 234q149 86 322 86q171 0 320 -86q147 -85 233 -234t86 -321q0 -171 -82 -313l461 -461q49 -49 49 -121q0 -35 -11.5 -65t-37.5 -56t-56 -37.5t-65 -11.5q-72 0 -121 49l-461 461q-146 -84 -315 -84q-174 0 -322 85q-147 86 -233 233 q-86 149 -86 321zM342 680q-1 -63 15.5 -122t47.5 -111.5t74.5 -95.5t96 -74.5t112.5 -48.5t123 -17t122 17t111.5 48.5t95.5 74.5t74.5 95.5t48.5 111.5t17 122q0 96 -38 182t-102 150.5t-149.5 101t-179.5 35.5q-100 -2 -181.5 -35t-150.5 -102t-102 -150.5t-35 -181.5z M512 594v172h213v213h170v-213h215v-172h-215v-213h-170v213h-213z" />
<glyph unicode="_" d="M170 680q0 172 86 321q85 148 233 234q149 86 322 86q171 0 320 -86q147 -85 233 -234t86 -321q0 -171 -82 -313l461 -461q49 -49 49 -121q0 -35 -11.5 -65t-37.5 -56t-56 -37.5t-65 -11.5q-72 0 -121 49l-461 461q-146 -84 -315 -84q-174 0 -322 85q-147 86 -233 233 q-86 149 -86 321zM342 680q-1 -63 15.5 -122t47.5 -111.5t74.5 -95.5t96 -74.5t112.5 -48.5t123 -17t122 17t111.5 48.5t95.5 74.5t74.5 95.5t48.5 111.5t17 122q0 96 -38 182t-102 150.5t-149.5 101t-179.5 35.5q-100 -2 -181.5 -35t-150.5 -102t-102 -150.5t-35 -181.5z M512 594v172h598v-172h-598z" />
<glyph unicode="`" d="M166 -391l483 1448l434 434h240l-426 -428q-37 10 -70 10q-64 0 -100 -33l2 -2l-6 -2q-34 -97 -69 -196.5t-71 -208.5q-35 -109 -62 -190t-46 -141l-37 -118q19 0 42 -8.5t49 -24.5q54 -33 99 -78q23 -23 42.5 -47.5t35.5 -50.5q33 -54 33 -92q204 69 414 139.5 t440 145.5l2 6l2 -2q33 36 33 100q0 33 -10 70l428 426v-240l-434 -434zM1645 1491h241l-631 -631q-40 34 -75 59.5t-64 43.5zM2048 1329v-242l-528 -528q-18 29 -43.5 64t-59.5 75z" />
<glyph unicode="a" d="M172 -385l242 723l669 672l62 -60l-656 -657l-36 37l-2 -2q-17 -48 -35 -98.5t-36 -104.5l-54 -165l-19 -58q40 0 96 -56t56 -96l426 144l2 2l-37 36l657 656l60 -62l-672 -669zM569 213l656 657l61 -61l-657 -655zM711 72l655 657l61 -61l-657 -656zM1145 1071l59 59 l484 -483l-60 -59zM1266 1192l59 59q39 39 84.5 57.5t97.5 18.5q105 0 181 -76l120 -121q76 -76 76 -180q0 -52 -18.5 -97.5t-57.5 -84.5l-59 -59z" />
<glyph unicode="b" d="M166 100q0 81 28 147.5t85 123.5l725 725l59 -62l-725 -723q-45 -45 -65.5 -97.5t-20.5 -113.5q0 -125 86 -211q88 -88 213 -88q123 0 211 88l964 965q64 64 64 152q0 83 -65 148t-150 65q-86 0 -150 -64l-663 -663q-39 -39 -39 -91t39 -89q41 -38 90 -38q53 0 90 37 l574 574l59 -62l-571 -573q-32 -32 -69.5 -47t-82.5 -15t-82.5 15t-69.5 47t-46.5 69t-14.5 82q0 91 61 152l664 664q45 45 97.5 65.5t113.5 20.5q127 0 213 -86q45 -45 65.5 -97.5t20.5 -113.5q0 -125 -86 -211l-967 -967q-113 -113 -270 -113q-158 0 -272 113 q-113 113 -113 272z" />
<glyph unicode="c" d="M180 1174q73 72 165.5 110.5t195.5 38.5q100 0 194.5 -38t167.5 -111q80 -81 121 -193q40 112 121 193q73 73 167.5 111t194.5 38q103 0 195.5 -38.5t165.5 -110.5q50 -49 83.5 -108.5t50 -123.5t16.5 -131t-16.5 -131t-50 -123t-83.5 -108q-93 -91 -241.5 -241.5 t-360.5 -361.5l-242 -241l-844 844q-74 74 -111.5 169t-37.5 194t37 193.5t112 168.5z" />
<glyph unicode="d" d="M180 1176q74 74 168.5 111.5t193.5 37.5t193.5 -37t167.5 -112q40 -42 70.5 -88.5t50.5 -104.5q38 109 121 193q49 50 108 83.5t123 50t131 16.5t131 -16.5t123.5 -50t108.5 -83.5q72 -73 110.5 -167t38.5 -194t-37 -193.5t-112 -168.5l-604 -605l-242 -241l-844 846 q-74 74 -111 168.5t-37 193t37 193t111 168.5zM115 815q0 -178 125 -303l784 -784q57 57 135 135.5t184 184.5l256 255l209 209q125 125 125 303q0 176 -125 301t-301 125q-181 0 -303 -125q-29 -29 -52.5 -67t-43.5 -86l-84 -199l-82 194q-20 48 -44 88t-54 70 q-122 125 -303 125q-176 0 -301 -125t-125 -301z" />
<glyph unicode="e" d="M117 676l657 49l250 610l250 -610l657 -49l-504 -426l156 -639l-559 346l-559 -346l156 639z" />
<glyph unicode="f" d="M117 676l657 49l250 610l250 -610l657 -49l-504 -426l156 -639l-559 346l-559 -346l156 639zM317 610l392 -331l-121 -498l436 270l436 -270l-121 498l392 331l-512 39l-195 475l-195 -475z" />
<glyph unicode="g" d="M168 1096q0 23 15 38t38 15h1604q22 0 37.5 -15t15.5 -38v-1090q0 -23 -15.5 -38t-37.5 -15h-269v-322l-319 322h-1016q-23 0 -38 15t-15 38v1090z" />
<glyph unicode="h" d="M170 438q0 12 9 20.5t20 8.5h227v-299q0 -60 33 -94q30 -33 85 -33h3q43 0 175 0.5t359 1.5v-229q0 -12 -8 -20.5t-20 -8.5h-541l-170 -172v172h-143q-11 0 -20 8.5t-9 20.5v624zM512 1106q0 19 12 31t31 12h1280q18 0 30.5 -12.5t12.5 -30.5v-938q0 -17 -13 -30t-30 -13 h-213v-256l-256 256h-811q-18 0 -30.5 12.5t-12.5 30.5v938z" />
<glyph unicode="i" d="M682 -45h172v512h-172v170h512v-682h172v-170h-684v170zM843 884q-75 75 -75 181t75 181t181 75t181 -75t75 -181t-75 -181t-181 -75t-181 75z" />
<glyph unicode="j" d="M307 1126q0 16 6.5 31.5t17.5 27.5t26.5 19.5t33.5 7.5q30 0 53 -17t31 -46l397 -1485q1 -5 1.5 -10t0.5 -10q0 -36 -23.5 -61t-62.5 -25q-28 0 -50.5 17t-30.5 46l-398 1483q-1 5 -1.5 10.5t-0.5 11.5zM662 1110q34 -18 79 -18q71 0 190 47q58 23 113.5 49t110.5 55 q54 29 109 54.5t115 49.5q60 23 107.5 35.5t84.5 12.5q46 0 80 -19q-20 -94 -41.5 -175.5t-46.5 -153.5q31 -42 62.5 -83.5t64.5 -83.5t59 -72t43 -50l35 -41q-35 18 -80 18q-36 0 -83 -12.5t-107 -35.5q-60 -24 -115 -49.5t-109 -54.5q-55 -29 -110.5 -55t-113.5 -49 q-119 -47 -191 -47q-46 0 -80 19z" />
<glyph unicode="k" d="M170 737v498q0 18 7 33.5t18.5 27t27 18.5t33.5 7h500q16 0 28 -12l983 -983h2q13 -13 13 -31t-13 -31h-2l-542 -545q-13 -10 -29 -10q-19 0 -31 12q0 3 -2 3l-983 983q-10 13 -10 28v2zM366 1124q-12 -12 -18 -27.5t-6 -32t6 -32t18 -28.5t27.5 -19t32 -6t32.5 6.5 t28 18.5q26 26 26 60.5t-26 59.5q-26 24 -60.5 24.5t-59.5 -24.5z" />
<glyph unicode="l" d="M219 737v498q0 35 24.5 60.5t59.5 25.5h498h4q17 0 29 -12l983 -983q12 -12 12 -31t-12 -31l-545 -545q-13 -10 -29 -10q-21 0 -31 15h-2l-981 983q-10 10 -10 28v2zM274 442l299 -827h-258q-17 0 -29 12t-12 31v784zM274 571l779 -909l-252 -104q-5 -1 -9 -1.5t-6 -0.5 q-27 0 -41 26v2zM414 1124q-12 -12 -18.5 -27.5t-6.5 -32t6 -32t19 -28.5t28.5 -19t32 -6t32 6.5t27.5 18.5q25 26 25 60.5t-25 59.5t-59.5 25t-60.5 -25z" />
<glyph unicode="m" d="M342 41q106 0 181 75t75 181v852q0 91 54 159q57 69 141 91q30 -33 56.5 -74t46 -88.5t31 -100.5t11.5 -110v-971q-42 -14 -84 -14h-512zM1194 1405q140 0 241 -125t101 -301v-1450l-256 256l-256 -256v1450q0 136 -41 245t-113 181h324z" />
<glyph unicode="n" d="M0 -387l242 563l397 78l385 -78l59 12l-239 557q-18 42 -25.5 80t-7.5 76q0 160 112 272q113 113 271 113q159 0 272 -113t113 -272q0 -35 -7 -72.5t-24 -76.5l-221 -514l80 16l399 -78l242 -563l-524 102l-500 -102l-500 102zM129 -315l408 86l12 61l80 -80l108 -22 l-172 172l15 71l264 -264l106 -22l-356 356l16 70l414 -414v-27l487 99l50 -11l-60 60l-22 108l190 -190l109 -25l-324 324l-22 108l452 -454l35 -6l-37 96l-432 430l-35 8l-104 -20l-117 -273l-96 230l-74 -15v-16l-18 20l-107 21l125 -125v-86l-231 231l-109 23l340 -340 v-84l-399 399l8 35l-324 -72zM1004 901q0 -78 56 -134t134 -56q79 0 135 56q57 55 57 134t-57 136t-135 57q-79 0 -134 -57q-56 -59 -56 -136zM1559 188l268 -268l-53 137l-105 107z" />
<glyph unicode="o" d="M512 809q0 212 150 362t362 150t362 -150t150 -362q0 -107 -41 -203l-471 -1098l-467 1092q-22 51 -33.5 101.5t-11.5 107.5zM843 990q-75 -75 -75 -181t75 -181t181 -75t181 75t75 181t-75 181t-181 75t-181 -75z" />
<glyph unicode="p" d="M170 467q0 70 50 120q52 50 122 50h156q-21 -21 -60 -84h-96q-18 0 -33.5 -7t-27 -18.5t-18.5 -27t-7 -33.5v-682q0 -18 7 -33.5t18.5 -27t27 -18.5t33.5 -7h1024q35 0 59.5 25.5t24.5 60.5v115l86 86v-201q0 -71 -50 -121q-50 -51 -120 -51h-1024q-70 0 -121 51 q-51 49 -51 121v682zM477 41q0 178 67 331q67 157 182 272q113 113 271 181q162 68 332 68v342l598 -598l-598 -596v340q-237 0 -428 -46q-197 -46 -310 -124q-114 -80 -114 -170z" />
<glyph unicode="q" d="M426 723q63 0 116 -27t89 -75l737 317q-1 6 -1.5 16.5t-0.5 24.5q0 106 75 181t181 75t181 -75t75 -181t-75 -181t-181 -75q-60 0 -113.5 26.5t-87.5 71.5l-741 -317q1 -6 1.5 -15t0.5 -22q0 -14 -0.5 -23.5t-1.5 -15.5l739 -317q34 46 87 73t116 27q106 0 181 -75 t75 -181t-75 -181t-181 -75t-181 75t-75 181q0 13 0.5 22t1.5 15l-739 317q-36 -45 -89.5 -71.5t-113.5 -26.5q-106 0 -181 75t-75 181t75 181t181 75z" />
<glyph unicode="r" d="M161 -396q-75 75 -75 181t75 181t181 75t181 -75t75 -181t-75 -181t-181 -75t-181 75zM256 723q208 0 397 -81q190 -81 327 -219q138 -137 219 -327q81 -189 81 -397h-342q0 138 -54 266q-54 126 -145 217t-218 145q-126 54 -265 54v342zM256 1405q177 0 343.5 -35 t320.5 -99t290.5 -157.5t251.5 -208.5t208.5 -251.5t157.5 -290.5t99 -320.5t35 -343.5h-340q0 189 -49 363q-50 178 -137 326t-215 276q-127 127 -276 215q-152 89 -326 137.5t-363 48.5v340z" />
<glyph unicode="s" d="M170 637q0 142 43.5 270.5t121.5 234.5q57 78 132.5 142.5t164 110.5t188 71t204.5 25q142 0 270.5 -43.5t234.5 -121.5q78 -57 142.5 -132.5t110.5 -164t71 -188t25 -204.5q0 -128 -33 -239.5t-100 -217.5t-155 -182.5t-197 -128.5l18 201v6q69 48 122 108t93 133 q80 149 80 320q0 139 -54 265q-54 127 -145 218q-46 45 -100 81.5t-118 64.5q-125 55 -265 55t-266 -55q-125 -54 -217 -146q-91 -91 -145 -218q-54 -126 -54 -265q0 -172 79 -320q79 -146 216 -241v-6l16 -201q-216 103 -350 311q-133 207 -133 457zM512 637q0 212 150 362 t362 150t362 -150t150 -362q0 -106 -40 -199.5t-112 -163.5q-31 86 -90 154q72 94 72 209q0 140 -101 241t-241 101q-141 0 -242 -101q-100 -100 -100 -241q0 -115 72 -209q-59 -68 -90 -154q-72 70 -112 163.5t-40 199.5zM791 150v18q0 87 67 150t166 63q98 0 166 -63 q67 -63 67 -150v-18l-63 -621h-340zM904 516q-50 50 -50 121t50 121q49 51 120 51q70 0 120 -51q50 -50 50 -121t-50 -121q-49 -49 -120 -49t-120 49z" />
<glyph unicode="t" d="M10 -197q444 23 602 185q-154 6 -248 90q-95 84 -122 209q51 -13 102 -13q34 0 66 7q-133 22 -229 127q-93 103 -93 229q0 12 2 29.5t6 40.5l34 -15l44 -18q18 -8 42 -13.5t40 -5.5q-168 139 -168 316v8q0 76 14.5 133.5t40.5 95.5q172 -223 412 -331q23 -11 40.5 -17.5 t31.5 -11.5q17 -6 44.5 -14t63.5 -19l13 -4q2 0 6 -1t6 -1l63 -12q18 -1 80 -18q32 -8 55 -11.5t37 -3.5q3 0 13 2q-9 40 -9 84q0 117 53 218t148 160q96 60 211 60q159 0 299 -131q156 21 283 121q-43 -157 -181 -256q63 11 120.5 26t109.5 35q-31 -66 -80 -113t-123 -93 v-27q0 -6 -1 -20t-1 -21h2q0 -124 -24.5 -241t-70 -224.5t-111 -203.5t-146.5 -177t-176.5 -145.5t-203 -110t-224.5 -70t-240 -24.5q-166 0 -326 52q-164 52 -307 138z" />
<glyph unicode="u" d="M426 1192q0 89 62 151q64 62 151 62t152 -62q63 -62 63 -151v-299h639q89 0 151 -62t62 -151q0 -87 -62 -151q-62 -62 -151 -62h-639v-213q0 -90 61 -151q62 -62 148 -62h430q89 0 151 -63q62 -65 62 -152q0 -88 -62 -150q-62 -63 -151 -63h-428q-130 0 -248 51t-204 137 q-43 43 -77.5 93.5t-59.5 110.5q-50 120 -50 249v938z" />
<glyph unicode="v" d="M598 553v256h170v258q0 107 36.5 173t96.5 101q42 25 77 36.5t83 18.5q24 3 42 5t31 3t28 1h32q55 0 119 -7.5t137 -23.5l-47 -272q-5 1 -14 2t-22 3q-26 4 -49.5 6.5t-45.5 2.5q-162 0 -162 -137v-170h293l-19 -256h-274v-940h-342v940h-170z" />
<glyph unicode="w" d="M252 165q-125 125 -125 302q0 176 125 301q127 125 303 125t301 -125t125 -301q0 -177 -125 -302q-124 -124 -301 -124q-179 0 -303 124zM1191 165q-124 124 -124 302q0 177 124 301q125 125 302 125q176 0 301 -125t125 -301q0 -177 -125 -302q-124 -124 -301 -124 q-178 0 -302 124z" />
<glyph unicode="x" d="M63 842q0 8 3.5 15.5t6.5 10.5l3 4q25 23 120 100.5t265 215.5q80 65 172 65q89 0 157 -63q67 -61 84 -172q32 -206 57 -342.5t43 -207.5q29 -113 54 -155q40 -63 70 -63q7 0 15.5 4t15.5 9q5 4 12 11l11 11t13 13.5t13 14.5q21 23 41 49t38 56q18 31 39.5 71.5 t46.5 92.5q39 79 39 153q0 63 -33 101t-108 38q-38 0 -102 -14q35 124 87 203.5t112 123.5q43 32 79 49t76 27t65.5 12.5t51.5 2.5h32q75 0 133 -21t97.5 -60.5t60.5 -96.5t21 -129q0 -64 -17.5 -137.5t-50.5 -161.5q-30 -78 -71.5 -155t-87.5 -148t-92.5 -134t-86.5 -112 q-27 -34 -56 -66t-61 -64l-88 -89q-25 -25 -59 -56q-221 -204 -377 -204q-189 0 -284 299q-28 88 -49.5 159.5t-38.5 131.5t-29.5 110.5t-21.5 89.5t-14.5 65t-8.5 36q-22 78 -44.5 135t-40.5 84q-31 45 -51 57t-28 10h-2q-4 0 -13 -3q-8 -2 -41 -23.5t-75 -59.5 q-17 -8 -30 -5t-18 10l-3 3q-9 14 -21 33t-26 45q-5 8 -5 21z" />
<glyph unicode="y" d="M342 467q0 69 14 136t39.5 129t62.5 117t82 100q93 93 217 146q126 54 265 54v215l588 -342l-588 -340v211q-175 0 -300 -125q-124 -124 -124 -301q0 -71 27 -150l-224 -129q-59 132 -59 279zM438 -88l588 340v-211q175 0 299 124q125 125 125 302q0 69 -27 149l224 129 q59 -132 59 -278q0 -69 -14 -136t-39.5 -129t-62.5 -117t-82 -100q-93 -93 -217 -146q-126 -54 -265 -54v-215z" />
<glyph unicode="z" d="M342 465v2v19q0 127 50 246q26 64 62.5 118t82.5 100q91 91 218 145t267 54v215l588 -342l-588 -340v211q-175 0 -300 -125q-124 -124 -124 -301q0 -71 27 -150h-2q46 -124 157 -204q100 -73 221 -73h10.5t10.5 1h4q14 0 24 0.5t17 1.5q9 1 18 2.5t17 1.5q34 9 69 21 q123 45 201 154t78 245q0 69 -27 149l224 129q59 -132 59 -278q0 -171 -78 -319q-78 -147 -214 -241q-141 -95 -302 -116q-47 -6 -90 -6q-70 0 -136 14t-129 40q-128 54 -218 144q-91 91 -145 217t-54 265h2z" />
<glyph unicode="{" d="M170 211v512h598v598h512v-598h598v-512h-598v-598h-512v598h-598z" />
<glyph unicode="|" d="M170 211v512h1708v-512h-1708z" />
<glyph unicode="}" d="M170 211v512h1708v-512h-1708zM725 -174q0 124 87 211q88 88 212 88q123 0 211 -88t88 -211t-88 -210q-87 -87 -211 -87t-212 87q-87 87 -87 210zM725 1106q0 124 87 211q88 88 212 88q123 0 211 -88t88 -211t-88 -210q-87 -87 -211 -87t-212 87q-87 87 -87 210z" />
<glyph unicode="~" d="M240 45l422 422l-422 422l362 362l422 -422l422 422l362 -362l-422 -422l422 -422l-362 -362l-422 421l-422 -421z" />
<glyph unicode="&#xa1;" horiz-adv-x="344" />
<glyph unicode="&#xa2;" horiz-adv-x="729" />
<glyph unicode="&#xa3;" d="M256 -45h170v256h-170v342h170v145v-8q0 173 86 318q45 75 103 131t131 98q147 84 321 84q171 0 320 -86q147 -85 233 -234t86 -321h-340q0 124 -88 211q-88 88 -211 88q-125 0 -213 -86q-86 -86 -86 -209v-131h383v-342h-383v-256h938v-342h-1450v342z" />
<glyph unicode="&#xa5;" horiz-adv-x="917" />
<glyph unicode="&#xa6;" horiz-adv-x="331" />
<glyph unicode="&#xa7;" horiz-adv-x="675" />
<glyph unicode="&#xa8;" horiz-adv-x="407" />
<glyph unicode="&#xa9;" horiz-adv-x="991" />
<glyph unicode="&#xab;" horiz-adv-x="1200" />
<glyph unicode="&#xac;" horiz-adv-x="907" />
<glyph unicode="&#xad;" horiz-adv-x="903" />
<glyph unicode="&#xae;" horiz-adv-x="1001" />
<glyph unicode="&#xaf;" horiz-adv-x="503" />
<glyph unicode="&#xb0;" d="M170 385q1 63 18.5 119t54.5 107q73 100 191 139q22 120 117 198q94 78 219 78q88 0 162.5 -40t120.5 -109q83 65 186 65q124 0 211 -88q88 -88 88 -213q0 -7 -1 -18t-3 -27q54 -6 102 -32t83.5 -65.5t55.5 -90.5t19 -107q-1 -63 -22 -115.5t-66 -97.5q-87 -88 -211 -88 h-940q-78 0 -148.5 31t-123.5 84t-83.5 123t-29.5 147zM672 164q0 -31 29.5 -49t74.5 -13q42 5 73 27q32 23 32 47v350l299 49v-280q-24 19 -55.5 19t-59 -12.5t-47 -34t-19.5 -44.5q0 -15 8.5 -27.5t22.5 -21t33.5 -12t40.5 -0.5t40 10.5t33.5 18t22.5 22t8 23.5h2v434 l-360 -60v-374q-26 16 -57 15.5t-58 -12.5t-45 -32t-18 -43z" />
<glyph unicode="&#xb1;" d="M1654 -333h-565q-18 0 -31 13t-13 31v90q24 5 45.5 10.5t41.5 12.5v-48q0 -9 6.5 -15.5t15.5 -6.5t15.5 6.5t6.5 15.5v65q13 5 23.5 11t19.5 12v-88q0 -9 6.5 -15.5t15.5 -6.5t15.5 6.5t6.5 15.5v435v1v543h305q18 0 31 13t13 31t-13 30.5t-31 12.5h-305v219h-1 q-1 39 -60 71.5t-157 52.5v137q0 18 13 30.5t31 12.5h565q19 0 31.5 -12.5t12.5 -30.5v-1611q0 -18 -12.5 -31t-31.5 -13v0zM1350 211q0 9 -6.5 15.5t-15.5 6.5t-15.5 -6.5t-6.5 -15.5v-435q0 -9 6.5 -15.5t15.5 -6.5t15.5 6.5t6.5 15.5v435v0zM1437 211q0 9 -6.5 15.5 t-15.5 6.5t-15 -6.5t-6 -15.5v-435q0 -9 6 -15.5t15 -6.5t15.5 6.5t6.5 15.5v435v0zM1524 211q0 9 -6 15.5t-16 6.5q-9 0 -15 -6.5t-6 -15.5v-435q0 -9 6 -15.5t15 -6.5q10 0 16 6.5t6 15.5v435v0zM1611 211q0 9 -6 15.5t-15 6.5t-15.5 -6.5t-6.5 -15.5v-435q0 -9 6.5 -15.5 t15.5 -6.5t15 6.5t6 15.5v435v0zM1462 1278q-17 0 -28.5 -11.5t-11.5 -28.5t11.5 -29t28.5 -12t28.5 12t11.5 29t-11.5 28.5t-28.5 11.5v0zM1571 1278q-17 0 -29 -11.5t-12 -28.5t12 -29t29 -12t28.5 12t11.5 29t-11.5 28.5t-28.5 11.5v0zM795 517q-88 0 -165.5 8.5t-135 23 t-91 34t-33.5 42.5q0 19 23 35t63 30q59 -20 146.5 -31.5t192.5 -11.5q104 0 192 11.5t147 31.5q40 -14 62.5 -30t22.5 -35q0 -23 -33.5 -42.5t-91 -34t-134.5 -23t-165 -8.5v0zM1219 584v1v-1v0zM370 582v3h1q0 -1 -0.5 -1.5t-0.5 -1.5v0zM795 473q87 0 163 8.5t133.5 22.5 t91.5 33.5t36 41.5v-212v-3q0 -23 -33.5 -42.5t-91 -34.5t-134.5 -23.5t-165 -8.5t-165.5 8.5t-135 23.5t-91 34.5t-33.5 42.5q0 1 0.5 1.5t0.5 1.5h-1v215q0 -23 33.5 -42.5t91 -34.5t135 -23.5t165.5 -8.5v0zM795 1169q88 0 165 -8.5t134.5 -23.5t91 -34.5t33.5 -41.5 q0 -23 -33.5 -42.5t-91 -34.5t-134.5 -23.5t-165 -8.5t-165.5 8.5t-135 23.5t-91 34.5t-33.5 42.5q0 22 33.5 41.5t91 34.5t135 23.5t165.5 8.5v0zM1219 1021v-2v2v0zM370 1017v4h1q0 -1 -0.5 -2t-0.5 -2v0zM795 908q87 0 163 8.5t133.5 23t91.5 34t36 41.5v-212v-4 q0 -23 -33.5 -42.5t-91 -34t-134.5 -23t-165 -8.5t-165.5 8.5t-135 23t-91 34t-33.5 42.5q0 1 0.5 2t0.5 2h-1v214q0 -23 33.5 -42.5t91 -34.5t135 -23.5t165.5 -8.5v0zM795 81q-88 0 -165.5 8.5t-135 23.5t-91 34.5t-33.5 42.5q0 18 23 34.5t63 30.5q59 -20 146.5 -31.5 t192.5 -11.5q104 0 192 11.5t147 31.5q40 -14 62.5 -30.5t22.5 -34.5q0 -23 -33.5 -42.5t-91 -34.5t-134.5 -23.5t-165 -8.5v0zM1219 149v1v-1v0zM370 146v4h1q0 -1 -0.5 -2t-0.5 -2v0zM795 38q87 0 163 8.5t133.5 22.5t91.5 33.5t36 41.5v-212v-4q0 -22 -33.5 -41.5 t-91 -34.5t-134.5 -23.5t-165 -8.5t-165.5 8.5t-135 23.5t-91 34.5t-33.5 41.5q0 2 0.5 2.5t0.5 1.5h-1v214q0 -23 33.5 -42.5t91 -34t135 -23t165.5 -8.5v0z" />
<glyph unicode="&#xb2;" horiz-adv-x="755" />
<glyph unicode="&#xb3;" horiz-adv-x="526" />
<glyph unicode="&#xb4;" horiz-adv-x="399" />
<glyph unicode="&#xb5;" horiz-adv-x="727" />
<glyph unicode="&#xb6;" horiz-adv-x="1101" />
<glyph unicode="&#xb7;" horiz-adv-x="376" />
<glyph unicode="&#xb8;" horiz-adv-x="569" />
<glyph unicode="&#xb9;" horiz-adv-x="411" />
<glyph unicode="&#xbb;" horiz-adv-x="1220" />
<glyph unicode="&#xbc;" d="M245 -162q-34 0 -56 21t-22 57l156 156v68h78v-68h1246v856h-931v78h931q15 0 29 -6.5t25 -17.5t17.5 -25t6.5 -29v-856l156 -156q0 -32 -21 -55t-57 -23h-1558zM1191 -25q-6 6 -28 6h-278q-22 0 -28 -6l-50 -49q-7 -10 23 -10h389q13 0 20 2.5t2 7.5zM716 231 q0 -18 -6.5 -34.5t-18.5 -29t-27.5 -20t-33.5 -7.5h-5h-364h-5q-18 0 -33.5 7.5t-27 20t-18 29t-6.5 34.5v880v1q0 38 26.5 64.5t64.5 26.5q1 0 1.5 -0.5t1.5 -0.5h356q1 0 2 0.5t2 0.5q38 0 64.5 -26.5t26.5 -64.5v-1v-880zM443 178q23 0 38 15.5t15 37.5t-15 37.5 t-38 15.5q-22 0 -37.5 -15.5t-15.5 -37.5t15.5 -37.5t37.5 -15.5zM402 1121q-9 0 -9 -9t9 -9h83q9 0 9 9t-9 9h-83zM670 1020h-454v-698h454v698z" />
<glyph unicode="&#xbd;" horiz-adv-x="1468" />
<glyph unicode="&#xbe;" horiz-adv-x="1492" />
<glyph unicode="&#xbf;" horiz-adv-x="757" />
<glyph unicode="&#xc0;" horiz-adv-x="1306" />
<glyph unicode="&#xc1;" horiz-adv-x="1306" />
<glyph unicode="&#xc2;" horiz-adv-x="1308" />
<glyph unicode="&#xc3;" horiz-adv-x="1306" />
<glyph unicode="&#xc4;" d="M428 637q0 -66 48 -118q49 -52 122 -52q45 0 84.5 22.5t62.5 61.5l50 86h458l50 -86q23 -39 62.5 -61.5t84.5 -22.5q73 0 121 52q49 52 49 118h172q35 0 60.5 -24.5t25.5 -59.5q0 -18 -7 -33.5t-18.5 -27t-27 -18.5t-33.5 -7l-170 -682q-8 -32 -22.5 -49.5t-28.5 -25.5 q-17 -11 -35 -11h-1024q-18 0 -35 11q-14 8 -28.5 25.5t-22.5 49.5l-170 682q-18 0 -33.5 7t-27 18.5t-18.5 27t-7 33.5q0 35 25.5 59.5t60.5 24.5h172zM512 637q0 13 3.5 23.5t8.5 19.5l256 444q12 21 30 32t44 11q18 0 33.5 -7.5t26.5 -19.5t17.5 -27.5t6.5 -31.5 q0 -27 -10 -43l-256 -444q-24 -41 -74 -41q-38 0 -62 25t-24 59zM598 -88q0 -17 12 -30t29 -13q18 0 30.5 12.5t12.5 30.5v342q0 18 -12.5 30.5t-30.5 12.5q-17 0 -29 -13t-12 -30v-342zM854 -88q0 -17 12 -30t29 -13q18 0 30.5 12.5t12.5 30.5v342q0 18 -12.5 30.5 t-30.5 12.5q-17 0 -29 -13t-12 -30v-342zM1110 -88q0 -17 12 -30t29 -13q18 0 30.5 12.5t12.5 30.5v342q0 18 -12.5 30.5t-30.5 12.5q-17 0 -29 -13t-12 -30v-342zM1110 1081q0 17 6.5 32.5t17.5 27.5t26.5 19t33.5 7q26 0 44 -11t30 -32l256 -444q5 -9 8.5 -19.5t3.5 -23.5 q0 -34 -24 -59t-62 -25q-50 0 -74 41l-256 444q-10 16 -10 43zM1366 -88q0 -17 12 -30t29 -13q18 0 30.5 12.5t12.5 30.5v342q0 18 -12.5 30.5t-30.5 12.5q-17 0 -29 -13t-12 -30v-342z" />
<glyph unicode="&#xc5;" d="M406 1321q60 0 86 -86l194 -1194h1020q18 0 33.5 -7t27 -18.5t18.5 -27t7 -33.5t-7 -33.5t-18.5 -27t-27 -18.5t-33.5 -7h-1088q-2 0 -13.5 1.5t-26 9.5t-28 25.5t-18.5 49.5l-190 1194h-86q-18 0 -33.5 7t-27 18.5t-18.5 27t-7 33.5t7 33.5t18.5 27t27 18.5t33.5 7h150z M596 1065l1282 -86v-512l-1157 -170zM662 -344q0 54 36 92q37 37 90 37q55 0 92 -37q38 -38 38 -92q0 -52 -38 -90q-37 -37 -92 -37q-52 0 -89 37t-37 90zM1450 -344q0 55 37 92t92 37q53 0 90 -37t37 -92q0 -52 -37 -89q-38 -38 -90 -38q-55 0 -92 37t-37 90z" />
<glyph unicode="&#xc7;" d="M86 381l938 940l938 -940h-170l-768 768l-768 -768h-170zM426 381l598 598l598 -598v-768h-385v768h-426v-768h-385v768zM1366 1149v172h256v-428z" />
<glyph unicode="&#xc8;" horiz-adv-x="897" />
<glyph unicode="&#xc9;" d="M170 -45v854l335 -251l425 -318q38 -29 94 -29t94 29l423 316l337 253v-854l-428 342l401 -401q-24 -27 -59 -27h-1536q-35 0 -59 27l401 401zM170 893q0 18 7 33.5t18.5 27t27 18.5t33.5 7h1536q18 0 33.5 -7t27 -18.5t18.5 -27t7 -33.5l-336 -251l-424 -318 q-36 -27 -94 -27t-94 27l-423 316z" />
<glyph unicode="&#xca;" horiz-adv-x="897" />
<glyph unicode="&#xcb;" horiz-adv-x="894" />
<glyph unicode="&#xcc;" horiz-adv-x="577" />
<glyph unicode="&#xcd;" horiz-adv-x="460" />
<glyph unicode="&#xce;" horiz-adv-x="567" />
<glyph unicode="&#xcf;" horiz-adv-x="546" />
<glyph unicode="&#xd0;" horiz-adv-x="1214" />
<glyph unicode="&#xd1;" d="M170 -215v852l335 -251l425 -318q36 -27 94 -27t94 27l423 316l337 253v-852l-428 340l401 -401q-25 -25 -59 -25h-1536q-34 0 -59 25l401 401zM170 723l335 251l425 318q42 31 94.5 31t93.5 -31l241 -181l278 -208q75 -57 134 -101t107 -79q-49 -36 -220 -164t-464 -348 l-76 -57q-42 -32 -93.5 -32t-94.5 32l-306 229l-239 180z" />
<glyph unicode="&#xd2;" horiz-adv-x="987" />
<glyph unicode="&#xd3;" horiz-adv-x="987" />
<glyph unicode="&#xd4;" horiz-adv-x="987" />
<glyph unicode="&#xd5;" horiz-adv-x="987" />
<glyph unicode="&#xd6;" d="M170 -215v852l335 -251l425 -318q36 -27 94 -27t94 27l423 316l337 253v-852l-428 340l401 -401q-25 -25 -59 -25h-1536q-34 0 -59 25l401 401zM170 723l335 251l425 318q43 32 94.5 32t93.5 -32l423 -317l337 -252l-215 -160l-41 -33v107q0 18 -7 33.5t-18.5 27 t-27 18.5t-33.5 7h-1024q-18 0 -33.5 -7t-27 -18.5t-18.5 -27t-7 -33.5v-107q-25 20 -61 47l-84 63z" />
<glyph unicode="&#xd7;" horiz-adv-x="808" />
<glyph unicode="&#xd9;" horiz-adv-x="913" />
<glyph unicode="&#xda;" horiz-adv-x="913" />
<glyph unicode="&#xdb;" horiz-adv-x="913" />
<glyph unicode="&#xdc;" d="M256 -387l63 442q9 65 59 111q49 45 114 45h1064q63 0 113 -45q51 -45 60 -111l63 -442h-1536zM682 979q0 141 100 241q101 101 242 101q140 0 241 -101t101 -241q0 -23 -3.5 -44.5t-8.5 -41.5l-80 -315h-2q-20 -86 -89 -142q-67 -55 -159 -55t-159 55q-69 56 -89 142h-2 l-80 315q-5 20 -8.5 41.5t-3.5 44.5z" />
<glyph unicode="&#xdd;" d="M1845 -92h-209l-45 315q-4 27 -18.5 49.5t-35.5 37.5h265q21 0 40.5 -8t35 -22t26.5 -33t14 -41l42 -298h-115zM1611 556q-7 -28 -23 -52t-38 -41.5t-49.5 -27.5t-57.5 -10t-57.5 10t-49.5 27.5t-37.5 41.5t-22.5 52l-12 47l61 219q5 17 7.5 36t2.5 39q0 63 -25 116 q28 20 61.5 32t71.5 12q48 0 89.5 -18t73 -49.5t49.5 -73t18 -89.5q0 -26 -8 -58zM1260 819l-58 -225h-1q-7 -30 -23.5 -55t-40 -44t-52.5 -29.5t-61 -10.5t-60.5 10.5t-52 29.5t-40.5 44.5t-24 54.5l-58 225q-4 15 -6 30t-2 32q0 50 19 94.5t52 77.5t77.5 52t94.5 19 q51 0 95.5 -19t77.5 -52t52 -77.5t19 -94.5q0 -32 -9 -62h1zM720 822l61 -219l-12 -47q-7 -28 -22.5 -52t-37.5 -41.5t-49.5 -27.5t-57.5 -10t-57.5 10t-49.5 27.5t-37.5 41.5t-22.5 52h-1l-54 213q-8 32 -8 58q0 48 18 89.5t49.5 73t73 49.5t89.5 18q38 0 71.5 -12 t62.5 -32q-26 -58 -26 -116q0 -34 11 -75h-1zM410 -92h-210h-115l43 298q3 22 13.5 41.5t26 33t35 21.5t40.5 8h265q-20 -15 -34.5 -37.5t-18.5 -49.5zM1404 334q22 0 43 -8.5t37.5 -23.5t28 -35.5t14.5 -43.5l45 -315h-122h-851h-122l45 315q3 23 14.5 43.5t28 35.5 t37 23.5t42.5 8.5h760z" />
<glyph unicode="&#xde;" horiz-adv-x="817" />
<glyph unicode="&#xdf;" horiz-adv-x="1132" />
<glyph unicode="&#xe0;" d="M170 -45h172v-170h1364v170h172v-342h-1708v342zM426 637h385v684h426v-684h385l-598 -596z" />
<glyph unicode="&#xe1;" d="M86 -301l53 377q8 56 50 93q44 38 96 38h336q-60 -41 -70 -111l-55 -397h-410zM449 860q0 120 84 204q84 85 204 85q93 0 170 -53q-33 -74 -33 -148q0 -49 13 -94l78 -279l-15 -57h-2q-16 -73 -76 -120q-58 -46 -135 -46q-76 0 -134 46q-57 44 -77 120l-69 268 q-4 16 -6 34t-2 40zM580 -301l57 397q9 59 53 100q43 40 101 40h960q54 0 101 -41q48 -41 55 -99l55 -397h-1382zM965 928q0 128 89 217q90 90 218 90q127 0 217 -90t90 -217q0 -41 -10 -78l-74 -285q-20 -77 -81 -126q-62 -50 -142 -50t-142 50q-62 49 -81 126h-2l-72 285 q-10 37 -10 78z" />
<glyph unicode="&#xe2;" d="M170 -45h172v-170h1364v170h172v-342h-1708v342zM426 723l598 598l598 -598h-385v-682h-426v682h-385z" />
<glyph unicode="&#xe3;" d="M256 -45l512 512l-512 512l256 256l512 -512l512 512l256 -256l-512 -512l512 -512l-256 -256l-512 512l-512 -512z" />
<glyph unicode="&#xe4;" d="M170 905q0 81 31.5 157t91.5 136t136 91.5t157 31.5q78 0 155 -31t138 -92l145 -145q60 -60 90.5 -136t30.5 -157q0 -55 -15 -107l-399 400q-61 61 -145 61q-87 0 -148 -61t-61 -148q0 -84 61 -145l400 -400q-54 -14 -107 -14q-79 0 -156 30.5t-137 90.5l-145 145 q-60 60 -91.5 136t-31.5 157zM627 760q0 21 8 40t22.5 33.5t33.5 22.5t40 8q44 0 74 -30l586 -586q30 -30 30 -74q0 -21 -8 -40t-22.5 -33.5t-33.5 -22.5t-40 -8q-44 0 -74 30l-586 586q-30 30 -30 74zM903 174q0 54 15 107l399 -400q61 -61 145 -61q87 0 148 61t61 148 q0 84 -61 145l-400 399q52 15 107 15q172 0 293 -121l145 -145q123 -123 123 -293t-123 -293q-60 -60 -136 -91.5t-157 -31.5q-78 0 -154 30t-139 93l-145 145q-60 60 -90.5 136t-30.5 157z" />
<glyph unicode="&#xe5;" d="M342 553l340 -342l1024 1024l256 -256l-1280 -1280l-258.5 258.5t-337.5 339.5z" />
<glyph unicode="&#xe7;" d="M768 1235q0 70 50 120t120 50h172q70 0 120 -50t50 -120h426q18 0 33.5 -7t27 -18.5t18.5 -27t7 -33.5q0 -35 -25.5 -59.5t-60.5 -24.5h-1364q-35 0 -60.5 24.5t-25.5 59.5q0 18 7 33.5t18.5 27t27 18.5t33.5 7h426zM426 979h1196v-1280q0 -71 -51 -120q-50 -50 -121 -50 h-852q-70 0 -122 50q-50 50 -50 120v1280zM598 -258q0 -19 12 -31t29 -12q19 0 31 12t12 31v1024q0 18 -12.5 30.5t-30.5 12.5q-17 0 -29 -13t-12 -30v-1024zM854 -258q0 -19 12 -31t29 -12q19 0 31 12t12 31v1024q0 18 -12.5 30.5t-30.5 12.5q-17 0 -29 -13t-12 -30v-1024z M1194 1235q0 35 -24.5 60.5t-59.5 25.5h-172q-35 0 -59.5 -25.5t-24.5 -60.5h340zM1110 -258q0 -19 12 -31t29 -12q19 0 31 12t12 31v1024q0 18 -12.5 30.5t-30.5 12.5q-17 0 -29 -13t-12 -30v-1024zM1366 -258q0 -19 12 -31t29 -12q19 0 31 12t12 31v1024q0 18 -12.5 30.5 t-30.5 12.5q-17 0 -29 -13t-12 -30v-1024z" />
<glyph unicode="&#xe8;" d="M469 -387v854h170v256q0 160 112 271q112 112 273 112q159 0 271 -112t112 -271v-256h172v-854h-1110zM811 467h426v256q0 89 -62 151t-151 62t-151 -62t-62 -151v-256zM938 125q0 -46 43 -74v-182h86v182q43 28 43 74q0 18 -7 33.5t-18.5 27t-27 18.5t-33.5 7t-33.5 -7 t-27 -18.5t-18.5 -27t-7 -33.5z" />
<glyph unicode="&#xe9;" d="M426 1194q0 70 51 121t121 51h512v-256q0 -106 75 -181t181 -75h256v-1024q0 -70 -51 -121t-121 -51h-852q-70 0 -121 51t-51 121v1364zM639 131q0 -18 12.5 -30.5t30.5 -12.5h684q17 0 29 12t12 31q0 17 -12 30t-29 13h-684q-17 0 -30 -13t-13 -30zM639 383 q0 -17 13 -29t30 -12h684q17 0 29 12t12 29q0 19 -12 31t-29 12h-684q-18 0 -30.5 -12.5t-12.5 -30.5zM639 639q0 -17 13 -29t30 -12h684q17 0 29 12t12 29q0 19 -12 31t-29 12h-684q-18 0 -30.5 -12.5t-12.5 -30.5zM639 895q0 -17 13 -29t30 -12h299q19 0 31 12t12 29 q0 19 -12 31t-31 12h-299q-18 0 -30.5 -12.5t-12.5 -30.5zM1194 1366l428 -428h-256q-70 0 -121 51t-51 121v256z" />
<glyph unicode="&#xea;" d="M342 -387v854h768v342q0 158 112 270q113 113 271 113q159 0 272 -113t113 -270v-256l-172 -86v342q0 88 -62 150q-62 63 -151 63q-88 0 -151 -63q-62 -62 -62 -150v-342h170v-854h-1108zM811 125q0 -49 43 -74v-182h84v182q43 25 43 74q0 36 -25 61t-61 25 q-35 0 -59.5 -25.5t-24.5 -60.5z" />
<glyph unicode="&#xeb;" d="M170 553h1708v-768q0 -18 -7 -33.5t-18.5 -27t-27 -18.5t-33.5 -7h-1536q-18 0 -33.5 7t-27 18.5t-18.5 27t-7 33.5v768zM170 637v172q1 10 18 25l136 120q28 25 59 25h299q33 0 61 -25l136 -120q22 -25 59 -25h854q35 0 60.5 -24.5t25.5 -59.5v-88h-1708z" />
<glyph unicode="&#xec;" d="M317 1040l615 -426h2q37 -24 90 -24q26 0 50 6.5t46 21.5l611 422l2 -2q24 27 58.5 27t60.5 -26t26 -60.5t-27 -58.5l2 -2l-755 -1006q-24 -43 -74 -43t-74 43l-755 1006l2 2q-14 12 -20.5 27.5t-6.5 31.5t6.5 32t18.5 28q26 26 60.5 25.5t59.5 -26.5z" />
<glyph unicode="&#xed;" d="M195 16l755 1006q24 43 74 43t74 -43l755 -1006l-2 -2q27 -24 27 -58.5t-26 -60.5t-60.5 -26t-58.5 27l-2 -2l-611 421q-23 16 -47 22.5t-49 6.5q-53 0 -90 -25h-2l-615 -425l-2 2q-12 -14 -27.5 -20.5t-32 -6.5t-32 6.5t-28.5 19.5q-12 12 -18.5 28t-6.5 32t6.5 31.5 t20.5 27.5z" />
<glyph unicode="&#xee;" d="M426 723l598 598l598 -598h-385v-1110h-426v1110h-385z" />
<glyph unicode="&#xef;" d="M426 211h385v1110h426v-1110h385l-598 -598z" />
<glyph unicode="&#xf0;" horiz-adv-x="1011" />
<glyph unicode="&#xf1;" d="M170 254v426h1110v385l598 -598l-598 -598v385h-1110z" />
<glyph unicode="&#xf2;" d="M426 467l172 51v-102zM602 45l80 164q5 -6 14.5 -17t25.5 -27t27 -25.5t17 -14.5zM602 889l164 -80q-12 -9 -44 -41q-31 -31 -40 -43zM782 225q-100 100 -100 242q0 141 100 241q101 101 242 101q140 0 241 -101t101 -241q0 -141 -101 -242q-100 -100 -241 -100 q-142 0 -242 100zM973 41h102l-51 -172zM973 893l51 172l51 -172h-102zM1282 125q12 9 43 40q32 32 41 44l80 -164zM1446 889l-80 -164q-5 6 -15 16.5t-26 26.5t-26.5 26t-16.5 15zM1450 416v102l172 -51z" />
<glyph unicode="&#xf3;" d="M170 467l598 598v-385h1110v-426h-1110v-385z" />
<glyph unicode="&#xf4;" d="M170 338q0 128 73 225q73 100 189 139q22 118 117 198q94 79 219 79q88 0 161.5 -41t121.5 -111q82 66 186 66q125 0 212 -88q87 -87 87 -211q0 -7 -1 -18t-3 -27q111 -14 185 -98q75 -84 75 -197q0 -124 -87 -212q-87 -87 -212 -87h-938q-161 0 -273 112t-112 271z" />
<glyph unicode="&#xf5;" d="M170 680q0 128 73 225q73 100 189 139q22 118 117 198q94 79 219 79q88 0 161.5 -41.5t121.5 -110.5q82 66 186 66q125 0 212 -88q87 -87 87 -211q0 -8 -1 -19.5t-3 -25.5q111 -14 185 -98q75 -84 75 -199q0 -123 -88 -210q-87 -87 -211 -87h-938q-161 0 -273 112 t-112 271zM528 -86q0 5 0.5 10t1.5 10l60 226v2v-2l166 -164v-2q28 -34 28 -80q0 -39 -23 -72.5t-59 -46.5q-7 -4 -12 -4h-2q-10 -2 -12 -2q-5 -1 -10.5 -1.5t-10.5 -0.5q-50 0 -89 36q-38 35 -38 91zM913 -150l62 226h-2h2q8 -8 26 -27t48 -49l92 -92q26 -32 26 -78 q0 -40 -22.5 -73t-59.5 -48q-5 0 -12 -4q-2 0 -6 -1t-6 -1q-3 0 -10.5 -1t-10.5 -1q-52 0 -89 36q-38 36 -38 91v22zM1296 0q0 4 0.5 8.5t1.5 9.5v2l60 226v2v-2v2v-2l166 -164v-2q28 -37 28 -80q0 -40 -22.5 -73t-59.5 -46q-7 -4 -12 -4l-2 -2h-12q-5 -1 -10.5 -1.5 t-10.5 -0.5q-50 0 -89 36q-38 35 -38 91z" />
<glyph unicode="&#xf6;" d="M170 254q0 128 73 225q73 100 189 139q22 117 118 196q94 79 218 79q88 0 161.5 -40.5t121.5 -109.5q82 66 186 66q124 0 211 -88q88 -88 88 -211q0 -8 -1 -19.5t-3 -25.5q112 -15 185 -100q75 -86 75 -197q0 -123 -88 -211q-87 -88 -211 -88h-938q-160 0 -273 113 q-112 112 -112 272zM1038 1233l162 -80l-84 -84zM1116 874q24 118 117 196q94 79 217 79q141 0 241 -100q101 -99 101 -240q0 -93 -47 -173q-46 -79 -123 -124q-2 158 -114 269q-112 112 -271 112q-67 0 -121 -19zM1460 1407l51 -172h-8.5t-17.5 1q-10 1 -16.5 1h-8.5h-8.5 t-17.5 -1q-10 -1 -16.5 -1h-8.5zM1718 467q6 5 16.5 15.5l26.5 26.5l41 42l80 -164zM1882 1233l-80 -164l-41 42l-26.5 26.5t-16.5 15.5zM1884 760q1 5 1.5 17t0.5 32t-0.5 33t-1.5 18l172 -51z" />
<glyph unicode="&#xf7;" horiz-adv-x="821" />
<glyph unicode="&#xf8;" horiz-adv-x="827" />
<glyph unicode="&#xf9;" d="M115 143l309 179l-293 135l37 78l346 -162l424 245l-424 246l-346 -162l-37 78l293 135l-309 179l43 73l309 -178l-29 322l84 8l35 -381l424 -246v490l-313 221l49 70l264 -187v356h86v-356l264 187l49 -70l-313 -221v-490l424 246l33 381l86 -8l-29 -322l307 178l43 -73 l-307 -179l293 -135l-37 -78l-346 162l-424 -246l424 -245l346 162l37 -78l-293 -135l307 -179l-43 -73l-307 178l29 -322l-86 -8l-33 381l-424 246v-490l313 -221l-49 -70l-264 187v-357h-86v357l-264 -187l-49 70l313 221v490l-424 -246l-35 -381l-84 8l29 322l-309 -178z " />
<glyph unicode="&#xfa;" d="M170 680q0 128 73 225q73 100 189 139q22 118 117 198q94 79 219 79q88 0 161.5 -41.5t121.5 -110.5q82 66 186 66q125 0 212 -88q87 -87 87 -211q0 -8 -1 -19.5t-3 -25.5q111 -14 185 -98q75 -84 75 -199q0 -123 -88 -210q-87 -87 -211 -87h-938q-161 0 -273 112 t-112 271zM854 211h170l86 -256l170 68l86 -494l-172 340l-170 -84z" />
<glyph unicode="&#xfb;" d="M170 680q0 128 73 225q73 100 189 139q22 118 117 198q94 79 219 79q88 0 161.5 -41.5t121.5 -110.5q82 66 186 66q125 0 212 -88q87 -87 87 -211q0 -8 -1 -19.5t-3 -25.5q111 -14 185 -98q75 -84 75 -199q0 -123 -88 -210q-87 -87 -211 -87h-938q-161 0 -273 112 t-112 271zM600 -74l10 15l64 -37l-6 67l18 2l6 -79l88 -52v103l-65 45l10 14l55 -37v74h19v-74l55 37l10 -14l-65 -45v-103l88 52l6 79l18 -2l-6 -67l64 37l10 -15l-66 -37l62 -28l-8 -17l-72 35l-88 -51l88 -51l72 33l8 -17l-62 -29l66 -36l-10 -15l-64 37l6 -67h-18l-6 77 l-88 52v-103l65 -45l-10 -14l-55 39v-74h-19v74l-55 -39l-10 14l65 45v103l-88 -52l-6 -77h-18l6 67l-64 -37l-10 15l64 36l-60 29l6 17l74 -33l88 51l-88 51l-74 -35l-6 17l60 28zM1069 96l10 17l64 -37l-6 65l18 2l6 -80l88 -49v101l-65 47l10 14l55 -39v74h19v-74l55 39 l10 -14l-65 -47v-101l88 49l6 80l18 -2l-6 -65l64 37l10 -17l-64 -37l60 -28l-6 -17l-74 35l-88 -51l88 -51l74 35l6 -17l-60 -28l64 -37l-10 -17l-64 37l6 -65l-18 -2l-6 79l-88 50v-101l65 -47l-10 -14l-55 39v-74h-19v74l-55 -39l-10 14l65 47v101l-88 -50l-6 -79l-18 2 l6 65l-64 -37l-10 17l66 37l-62 28l8 17l72 -35l88 51l-88 51l-72 -35l-8 17l62 28z" />
<glyph unicode="&#xfc;" d="M170 383q0 126 73 226t189 139q23 119 117 197q94 79 219 79q88 0 161.5 -41t121.5 -111q82 66 186 66q125 0 212 -87t87 -212q0 -7 -1 -18t-3 -27q111 -14 185 -98q75 -84 75 -197q0 -125 -87 -212t-212 -87h-938q-161 0 -273 112t-112 271zM684 299l299 -299l299 299 h-192v340h-213v-340h-193z" />
<glyph unicode="&#xfd;" horiz-adv-x="925" />
<glyph unicode="&#xfe;" horiz-adv-x="817" />
<glyph unicode="&#xff;" d="M281 537q-1 30 1.5 49t17.5 34q2 2 3 4t3 4h3q11 7 20 10t26 3q3 -1 6.5 -0.5t6.5 0.5l5 -4h6l3 -3q2 0 4 -0.5t4 -0.5l7 -7l7.5 -5t6.5 -6q10 -14 13 -39t-7 -43l-3 -2l-2 -6l-6 -5l-9.5 -9.5t-12.5 -7.5h-5v-2q-6 -2 -17.5 -3t-18.5 1v2h-7q-6 2 -10 7t-9 9v-41 q-2 -3 -3 -12t-3 -14q-3 -6 -8 -10.5t-10 -9.5l-3 -5q-13 -9 -29 -11.5t-31 0.5t-28 11t-20 19v3q-1 0 -1 1t-0.5 1t-0.5 1l-2 3l-2 10l-3 5q-2 8 -0.5 19.5t3.5 16.5l3 14q7 15 20.5 23.5t30.5 13.5q10 3 22.5 -1t17.5 -7q3 -2 4.5 -5t6.5 -5zM1107 634q4 0 7.5 0.5 t5.5 -1.5q5 -2 7 -5.5t5 -6.5q2 -20 -11 -23q-3 -3 -12 -3q-7 6 -11.5 7.5t-4.5 15.5q2 2 2 4t1 4q2 1 6 4t5 4zM341 607q-1 -1 -2 -1h-3q-2 -4 -6 -6t-6 -5v-4l-3 -3l-2 -3v-8h-2q-1 -4 0 -8t2 -6v-8h1q1 -3 2 -5.5t2 -4.5t7 -6.5t8 -5.5h5q5 -2 12 -2t10 3q8 2 13 9t7 16 t1 18.5t-6 17.5q-3 4 -8.5 6t-9.5 6h-22zM555 529h57v26.5t2 24.5l11 10q5 0 9.5 -0.5t9.5 -1.5q2 -3 5 -5.5t4 -7.5v-38q0 -22 0.5 -46t-1.5 -44q-2 -2 -4 -3t-4 -3t-7.5 -4t-10.5 0l-3 4h-3l-2 2q-1 0 -1 0.5t-1 0.5t-1 1q-5 8 -4 25.5t1 28.5h-57q0 -14 -0.5 -28.5 t-2.5 -25.5q-7 -4 -11.5 -7t-15.5 3h-3q-1 0 -3 2l-2 2q-4 6 -3.5 17.5t0.5 20.5q0 24 -0.5 49.5t1.5 47.5l12 10q5 0 9.5 -0.5t9.5 -1.5q2 -3 4.5 -5.5t4.5 -7.5v-46zM706 499q0 -18 14 -23q4 -5 11 -6t14.5 -0.5t14.5 2.5t11 5l4.5 4.5t4.5 3.5q11 4 16.5 -3t6.5 -16 q-2 -2 -1 -2.5t-1 -2.5q-2 -1 -2.5 -1.5t-2.5 -1.5q-2 -2 -3 -4t-3 -4q-2 0 -3 -0.5t-3 -0.5q-2 -2 -2 -4h-5l-3 -3q-2 0 -4.5 -0.5t-5.5 -0.5v-2q-2 -1 -8 -2t-12.5 -1h-12.5t-9 1q-41 12 -54 45l-3 19q-3 9 -2 22t5 21q13 30 44 43h6q5 2 14.5 3.5t17.5 -0.5v-2h8v-1 q5 -2 8.5 -2.5t7.5 -2.5q9 -6 17.5 -16.5t12.5 -21.5l2 -13q1 -2 2.5 -9t0.5 -10h-2q0 -2 -0.5 -4t-0.5 -4q-18 -6 -47 -5.5t-53 0.5zM925 457q-2 -7 -10 -11.5t-18.5 -6.5t-21.5 -1.5t-19 3.5l-3 3l-9 3q-8 5 -16 15t-11 18q-2 5 -1.5 9t-1.5 9t-3 15t1 16q5 17 13 30 t22 21q2 2 5 2t6 1l3 4h7v1h8q11 3 23 1.5t22.5 -6t19 -10.5t12.5 -12l2 -6l3 -2l8 -25v-22q0 -8 0.5 -18.5t0 -20.5t-3 -17t-8.5 -9q-4 -4 -8 -3.5t-10 1.5q-2 3 -3 3.5t-3 4.5q-3 1 -3 10h-3zM1185 553q-1 -3 -1.5 -5t-0.5 -6q6 -3 11 -8l16 -3q13 -5 24.5 -9t20.5 -13 l4 -3v-3q0 -4 4 -4v-4h1v-7h2q2 -5 0 -10.5t-3 -8.5v-5q-5 -11 -16 -17t-25 -8.5t-29 -0.5t-27 7q-7 3 -11.5 5t-7.5 8q-4 4 -3.5 9t1.5 10q4 2 7 5q16 0 22.5 -5t18.5 -9q4 -2 13.5 -1.5t11.5 2.5q8 2 8 14q-2 2 -2.5 3t-2.5 2h-3v2l-10 2t-10 3q-16 5 -28 11t-20 20l-3 3 q-2 3 -3 13t1 14h2q1 4 1 6.5t2 5.5q1 0 1.5 0.5t1.5 0.5v3q3 4 7 6t9 4q17 9 41.5 8t39.5 -11l3 -5h3l2 -5q1 0 1.5 -0.5t1.5 -0.5v-15q-2 -2 -1.5 -1.5t-0.5 -1.5q-1 0 -2 -0.5t-2 -0.5q-8 -6 -19 -0.5t-18 7.5q-4 2 -14 2t-13 -2v-1zM1331 590q21 0 35.5 -3t26.5 -12 q3 -2 4.5 -6t4.5 -6v-13l-6 -6q-7 -7 -19 -2v2h-3l-4 5q-4 2 -16 5.5t-20 0.5q-13 -5 -22 -19t-3 -32q0 -3 0.5 -5.5t0.5 -5.5q1 -2 6 -8.5t7 -7.5h3v-1q2 -2 3 -2t3 -2q8 0 15.5 -0.5t14.5 2.5q2 1 3 2.5t2 2.5q5 3 10 5t12 3q3 -2 5.5 -3t4.5 -4q3 -3 3 -16q-3 -3 -5 -7 t-6 -7q-12 -8 -30 -13q-8 -2 -21.5 0t-18.5 4q-2 0 -4.5 0.5t-4.5 0.5v2l-10 3v2h-3l-2 3h-3q-14 10 -23.5 33t-1.5 46v6q5 14 15.5 27.5t24.5 18.5q4 2 11.5 3t10.5 4zM1516 457q-2 -6 -9.5 -11t-18 -7.5t-21.5 -2t-19 4.5q-33 16 -43 49v8q-8 29 5.5 50.5t28.5 31.5 q2 2 5 2t6 1l3 4h6v1q7 2 18.5 2t18.5 -2q5 -2 8.5 -1.5t8.5 -1.5q18 -8 28.5 -22t16.5 -35v-59v-11.5t-2 -10.5q-2 -1 -2.5 -1.5t-2.5 -1.5q-6 -6 -11 -5.5t-14 2.5q-2 4 -4 6.5t-3 9.5h-3zM1615 453l-2 2l-2 2h-1q-2 -8 -4.5 -10.5t-6.5 -7.5q-5 0 -9.5 -1t-8.5 3 q-6 2 -8 8q-3 3 -3 8.5v11.5q0 14 -0.5 29.5t2.5 26.5v9h1v7h2v4h2l3 10h1v3l5 3q2 4 5 8t6 6q19 12 47 14t48 -10q21 -13 30 -41.5t-3 -58.5l-3 -3v-4q-1 0 -1.5 -0.5t-1.5 -0.5l-2 -7l-11 -9q-1 -2 -1.5 -2.5t-1.5 -2.5h-3q-2 -1 -3 -3t-3 -3q-3 -2 -9 -3.5t-13.5 -3 t-15 -1.5t-12.5 1v2q-4 2 -8 2.5t-7 2.5t-3.5 3.5t-4.5 2.5v3zM1773 499q1 -13 7 -17t12 -11q8 -1 17 -2t17 2l3 2l3 3h3l2 3h3l3 4h5v2q14 5 19 -8q4 -4 2.5 -8t-2.5 -9q-3 -2 -4.5 -4t-3.5 -4q-7 -5 -16.5 -8.5t-18.5 -6.5q-8 -2 -22 0t-19 4l-14 3q-2 2 -2 3l-6 2 q-10 6 -17.5 17.5t-11.5 23.5v8q-2 5 -3 14.5t1 15.5h2v8l3 5v4q4 9 12 18t19 16t24 10t28 -1q3 0 6 -0.5t6 -0.5q22 -10 33.5 -29t11.5 -51q-4 -2 -5.5 -4t-7.5 -2q-3 -2 -11 -2h-13h-65zM1093 569q0 2 0.5 4.5t0.5 5.5q4 2 10 8q5 0 9.5 -0.5t9.5 -1.5l8 -11v-41v-37 q-7 -23 -16.5 -35t-31.5 -20q-5 -2 -20.5 -5t-25.5 0q-14 5 -25 11h-3q-7 4 -14 12t-12 19t-6.5 23.5t2.5 24.5v8q4 13 11 24.5t17 18.5l7 2q0 1 0.5 1.5t0.5 1.5q6 3 14.5 4.5t18 1.5t18 -1.5t13.5 -4.5q0 -1 0.5 -1.5t0.5 -1.5l5 -2q3 -2 3 -4t5 -4zM706 529h63 q-1 8 -4 12t-5 9q-4 1 -6.5 3t-4.5 3q-4 2 -11.5 2t-11.5 -2q-3 -1 -5.5 -3.5t-6.5 -3.5zM1837 529v2q-3 3 -4 7t-3 7q-2 4 -6.5 6t-7.5 5q-6 1 -11.5 1.5t-10.5 -1.5v-1l-10 -3q-3 -6 -6.5 -10.5t-4.5 -12.5h64zM882 555q-2 -2 -3.5 -2t-2.5 -1q-14 -5 -21.5 -21.5 t-1.5 -34.5h2l3 -9q2 -2 8 -7t8 -6h5q2 -1 9 -2t11 0q15 5 24 23.5t0 38.5q-9 21 -41 21zM1473 555q-1 -2 -2.5 -2t-3.5 -1q-12 -3 -18 -13.5t-6 -22.5t5 -23.5t14 -16.5q5 -3 17 -4t17 4q14 3 20.5 22t-1.5 36q-11 21 -42 21zM1675 482q1 3 2 3.5t3 2.5q2 3 1.5 6t1.5 7h1 q5 14 -1.5 28.5t-12.5 19.5q-2 0 -3 0.5t-3 0.5l-3 3q-5 2 -14.5 2t-12.5 -3q-10 -2 -15.5 -10.5t-7 -19t0.5 -21.5t7 -18q3 -4 15.5 -9t22.5 -2q5 2 9 5t9 5zM1047 553q-2 -2 -3 -1t-4 0v-2q-5 -2 -9 -3.5t-6 -5.5v-4l-5 -4l-2 -11q-4 -20 4.5 -33.5t22.5 -17.5q9 -3 17 0 t13 5q3 5 8 9t7 10q2 5 2 14t-2 14q-6 16 -13.5 23.5t-29.5 6.5zM220 453q5 -1 8 -3.5t7 -4.5h20q2 2 3.5 2t3.5 2v1h3q4 3 6.5 8t6.5 8q1 16 -0.5 31.5t-15.5 19.5q-4 4 -15.5 5t-16.5 -4q-11 -2 -17.5 -18.5t-1.5 -30.5q2 -4 5 -7.5t4 -8.5zM1586 431q3 0 6.5 -0.5 t6.5 -0.5q4 -6 7.5 -9t3.5 -14q-3 -3 -3 -8l-10 -8q-9 0 -15.5 1.5t-8.5 8.5q-3 3 -3 16q4 3 5 6t6 5z" />
<glyph unicode="&#x100;" d="M306 534q113 43 202 61.5t166 13t148.5 -35t151.5 -81.5q-4 -15 -15.5 -55t-27.5 -94.5t-34 -117.5t-36 -124t-33.5 -114.5t-25.5 -88.5q-77 53 -149.5 82t-151.5 34t-168.5 -14t-199.5 -62q4 15 16.5 59t29.5 103t36.5 126t37.5 128.5t32 109.5t21 70zM504 1237 q114 43 203 61.5t165.5 12.5t148 -35.5t151.5 -81.5q-4 -15 -15.5 -55t-27.5 -94.5t-34 -117.5t-36 -124t-33.5 -114.5t-25.5 -88.5q-76 53 -149 82t-152 34.5t-169 -13.5t-199 -63q5 15 18 59t29.5 103t36 126.5t37 128.5t31.5 109.5t21 70.5zM1742 498 q-113 -44 -202 -62.5t-166.5 -12.5t-149.5 35.5t-150 81.5q4 15 15 55.5t26.5 94.5t34 117t36 124t33.5 114.5t27 88.5q76 -53 149 -82.5t152 -34.5t169 14t199 63q-5 -15 -18 -59t-30 -103t-36.5 -126t-37 -128.5t-31.5 -110t-20 -69.5zM1544 -205q-114 -43 -203 -61.5 t-165.5 -12.5t-148.5 35.5t-151 81.5q4 15 15.5 55t27 94.5t33.5 118t36 124.5t33.5 114t26.5 88q76 -53 149 -82.5t152 -34.5t168.5 14t199.5 63q-5 -15 -17.5 -59t-29.5 -103.5t-36.5 -126.5t-37 -128t-32 -109.5t-20.5 -70.5z" />
<glyph unicode="&#x101;" d="M889 1179l895 177v-4q0 -48 1.5 -94t1.5 -94v-426q0 -17 1 -42t1.5 -50.5t-0.5 -48t-6 -34.5q-227 -3 -447 -5.5t-447 -4.5v626zM803 1163q3 0 6 -0.5t6 -0.5q0 -155 -0.5 -304.5t-0.5 -304.5q-106 -2 -211 -3t-211 -2q-9 0 -30 -1t-43.5 -1.5t-41.5 0.5t-22 4v503z M815 479q0 -155 -0.5 -304.5t-0.5 -303.5l-3 -2l-556 111v253.5t1 253.5zM1787 -324l-898 178v625l1 1l897 -12v-792z" />
<glyph unicode="&#x102;" d="M1357 1353q2 -81 -15.5 -137.5t-51.5 -105.5q-8 -12 -19.5 -22.5t-19.5 -21.5q-28 -36 -69.5 -58t-92.5 -36q-17 -5 -33 -3.5t-33 1.5q0 19 -1.5 39.5t3.5 37.5q12 49 29 87t39.5 68.5t52 55.5t66.5 48q29 18 65.5 32.5t79.5 14.5zM1315 953q96 2 165 -27t120 -73 q14 -12 25 -23t21 -26q2 -2 8 -9t4 -9q-7 -7 -15 -11t-16 -10q-10 -7 -19 -15.5t-19 -16.5q-6 -4 -10 -10t-9 -12q-7 -8 -15 -15.5t-14 -16.5q-20 -29 -31.5 -60t-22.5 -73q-2 -8 -4 -21.5t-3 -29t-1 -30.5t2 -25q4 -20 6 -39.5t7 -36.5q19 -59 51 -105q20 -29 47.5 -54.5 t56.5 -45.5q4 -2 12.5 -6t17.5 -8.5t16 -9.5t8 -8q-7 -8 -9 -21t-7 -24q-8 -20 -16 -39.5t-18 -38.5q-21 -40 -48.5 -85.5t-60.5 -88t-71 -77t-80 -51.5q-31 -12 -63.5 -10.5t-63.5 10t-59.5 20.5t-51.5 20q-20 7 -40.5 8.5t-42.5 6.5q-17 4 -37.5 1t-33.5 -7 q-18 -5 -34.5 -7.5t-33.5 -9.5t-40 -17t-49 -17.5t-53.5 -10t-52.5 5.5q-56 18 -95.5 56.5t-70.5 81.5q-24 33 -47.5 66t-45.5 68q-23 38 -40 80.5t-34 84.5q-13 31 -19.5 64.5t-17.5 65.5q-5 14 -5.5 27t-3.5 27q-6 27 -9.5 63.5t-3.5 75.5t3.5 75.5t11.5 62.5 q17 59 39.5 108.5t53.5 90t71 72.5t93 55q28 12 58 16.5t63 12.5q23 5 50 0t41 -10q17 -6 32 -8.5t31 -8.5q29 -12 59 -23.5t62 -20.5q25 -7 48 1t40 16q33 15 66 24.5t68 20.5l60 12q5 2 10.5 1t8.5 1z" />
<glyph unicode="&#x103;" d="M816 1229q15 2 27 8.5t24 11.5h14v3h8v3h11v3h12v2h14v3h14v3l45 3v3q5 1 17 1t24.5 -0.5t24 -1.5t15.5 -2h26v-3h19v-3h14v-3h15q23 -8 46 -15.5t46 -15.5q2 3 3.5 3.5t2.5 2.5v6h3v5l5 3v6l6 5v6h3v6h3q2 10 2 11l6 3v5h3v6h3v8q2 2 4 3t4 3v6l6 5v6h3v6q-3 0 5 2v6 q5 7 8.5 14t8.5 14h6v3h8l6 -9t3 -14q-8 -5 -11.5 -16.5t-8.5 -19.5l-6 -3v-6h-3v-5h-2v-6l-6 -5v-6l-6 -3l-2 -11l-6 -3v-8l-6 -3l-1.5 -7.5t-0.5 -3.5q-5 -9 -9 -13.5t-6 -17.5q8 -2 14 -5t12 -7q1 -2 1.5 -2.5t1.5 -2.5h8l3 -6h5l6 -8h6q2 -2 2.5 -4.5t2.5 -4.5h6 q2 -2 3 -4t3 -4h5l11 -14h6l3 -6l11.5 -11.5t13.5 -8.5v-5l12 -9v-5l16 -14v-6l9 -6v-5l5 -3v-6q2 -2 4.5 -2.5t4.5 -2.5l3 -12l5 -2l3 -12q2 -1 4 -1q1 0 2 -1l3 -15q-3 0 5 -2v-9h3l3 -11h3v-8q2 -1 2.5 -1.5t2.5 -1.5l3 -17h3v-9h3v-8h3q0 -5 0.5 -10t1.5 -10h3v-17 q1 -3 3 -13.5t4 -22t3 -21.5t-1 -13q-3 -2 -11.5 -3t-18.5 -1t-19.5 0.5t-15.5 0.5h-177h-706l-3 9q5 6 2.5 16.5t0.5 19.5h2v20h3l3 25h3v14h3v6h2v8h3v12h3l3 11h3v8h3v6h2v8h3q2 5 3 9t3 8h3v6h2l3 11l6 3l3 11q2 1 2.5 1.5t2.5 1.5v6q2 2 4.5 2.5t4.5 2.5v6l5 3v5l9 6v6 l11 8v6l23 19q12 15 25 28h6q1 2 2.5 4.5t5.5 7.5h6l8 11h6q0 2 0.5 2.5t0.5 1.5t1 2h6q1 2 1.5 2.5t1.5 2.5h6q1 4 5 9l11 3v2q7 4 12.5 7t13.5 5q-1 11 -4 14t-8 11v6h-2l-3 11l-6 3v8h-3l-2 8l-6 3v6l-6 6v5h-2v6h-3v5h-3l-3 12q-2 0 -3 0.5t-2 0.5t-1 1t-0.5 4t-1.5 8 q-5 8 -9 12.5t-5 18.5q2 2 1.5 1.5t0.5 3.5q6 3 9 6q4 -2 3.5 -1.5t1.5 -1.5q10 -3 10 -6.5t5 -10.5l5 -3v-8l6 -3v-5h3v-6l5 -6v-5l6 -3l3 -14q2 -1 2.5 -1.5t2.5 -1.5l3 -11l6 -3q2 -5 2.5 -8.5t2.5 -8.5l6 -3v-8h3q3 -7 6 -12.5t5 -13.5zM796 1086q-4 -4 -5.5 -3.5 t-5.5 -2.5q-9 -6 -11.5 -17.5t-2.5 -27.5q5 -3 4 -5t2 -6t7.5 -7t9.5 -7l19 -3v3h9q11 4 19 17q3 3 5.5 14.5t0.5 19.5h-3v8l-5 3q-9 9 -16.5 12t-26.5 2zM1275 1027h2v6h3q3 8 1 19.5t-4 16.5l-11 9v2h-6q-1 0 -1 1t-0.5 2t-0.5 3h-31q-3 -5 -5.5 -5t-6.5 -3 q-8 -8 -9.5 -18.5t-1.5 -26.5q2 -3 1.5 -2t1.5 -4q5 -5 10 -8.5t10 -8.5l22 -3q6 2 11 5.5t12 5.5zM338 194q-10 3 -12.5 9t-7.5 14h-3v5q-2 1 -2.5 1.5t-2.5 1.5q-6 11 -8 28.5t-2.5 38t0.5 40.5t1 37v267q0 10 -0.5 25.5l-1 31t0.5 29t4 21.5h3l3 14q2 1 2.5 1.5t2.5 1.5 v5h3l3 12l11 8q3 4 6 7t5 7h6v3h6l3 6q1 0 3.5 0.5l7.5 1.5v3l25 3q3 1 11 3t14 0v-3q9 -2 17 -1.5t14 -4.5q1 -2 1.5 -2.5t1.5 -2.5h9v-3l3 -4l2 -2h6q1 -2 1.5 -2.5t1.5 -2.5q2 -2 8 -3v-6q5 -4 9 -5v-6l5 -3q14 -26 14 -65v-78v-273v-99h-3v-11h-2v-8h-3q-2 -5 -3 -9 t-3 -8h-3v-6q-2 -1 -2.5 -1.5t-2.5 -1.5v-5l-12 -9q0 3 -2 -5h-6l-6 -9q-11 -8 -35 -12.5t-43 1.5h-14l-3 6h-9v2l-11 3v3l-4.5 3t-6.5 3v5zM1722 788q2 -5 2.5 -6.5t2.5 -4.5h3v-6l6 -3v-8l5 -3q2 -8 4.5 -14.5t4.5 -13.5v-346v-130h-3v-11h-3v-8h-3v-6h-2v-8l-9 -6v-8h-3 q-6 -9 -14 -17h-5l-6 -9q-12 -8 -36 -12.5t-43 1.5h-14l-3 6h-8v2l-11 3v3l-4.5 3t-6.5 3v5q-10 3 -12.5 9t-7.5 14h-3v5l-6 3v9h-2v8h-3v11h-3v71v154v180q0 20 -1.5 44t4.5 41h3v5h2v9l6 3v8l6 3v6q-3 0 5 2q4 5 7.5 9t6.5 8h6l3 6l8 3v3q3 1 11 3.5t17.5 4.5t18.5 3t15 0 v-3q8 -2 16 -1.5t15 -4.5q1 -2 1.5 -2.5t1.5 -2.5h8l3 -6l9 -3v-3q3 -2 4.5 -2.5t6.5 -2.5zM554 799h661h195q20 0 46.5 1.5t43.5 -4.5q-3 -16 -3 -37.5v-41.5v-129v-377v-95l3 -9q-4 -12 -7.5 -24t-6.5 -24l-6 -3l-3 -11h-3q-3 -4 -4.5 -6.5t-3.5 -7.5q-6 -2 -8 -3.5 l-6 -4.5v-3h-6v-3q-4 -2 -8 -3t-9 -3v-2l-17 -3v-3q-9 -3 -22 -4t-27.5 -0.5l-29 1t-25.5 0.5v-177q0 -20 1.5 -44t-4.5 -40q-22 -63 -92 -79h-3q-3 0 -3 3l-6 -3v3h-25v2h-8v3h-9l-3 6l-11 3q-1 2 -1.5 2.5t-1.5 2.5h-5l-3 6l-14 11v6l-6 3v5l-5 3v6h-3q-2 6 -3 12.5 t-3 12.5h-3v253h-143v-180q0 -23 0.5 -49.5t-6.5 -43.5h-3v-5h-2v-6l-6 -3v-8l-11 -9q-8 -8 -14 -17q-1 0 -4 -0.5t-8 -1.5l-2 -6l-17 -3v-3h-6v-2h-20v-3h-11v3h-22v2h-9v3h-5v3h-9l-3 6h-5q-1 2 -1.5 2.5t-1.5 2.5h-6l-3 6q-3 3 -6.5 5.5t-7.5 5.5v6l-5 3v5l-6 3v9h-3v5 h-2v9h-3q-6 17 -4.5 40.5t1.5 43.5v177q-21 0 -47 -1t-43 4h-17v3h-6v3h-11q-1 2 -1.5 2.5t-1.5 2.5l-11 3l-3 6h-5l-9 11l-14 11q-11 17 -15.5 43.5t-5.5 57t0 62t1 59.5v532z" />
<glyph unicode="&#x104;" d="M1576 407q-12 -3 -17.5 -8t-14.5 -10l-26 -9q-2 -2 -2.5 -4.5t-2.5 -4.5h-9l-9 -9h-9v-5q-5 -1 -9 -2t-9 -2l-4 -9l-27 -9v-5q-11 -5 -20 -10t-21 -8q-90 183 -177 361.5t-178 361.5h-4l-14 41h-4v9h-5q-1 5 -2 9t-2 9h-5v9h-4v9h-5v9h-4v9h-5v9h-4q-2 5 -2.5 9t-2.5 9 h-4v9h-4v9h-5v9h-4q-2 5 -2.5 9t-2.5 9l-9 4v9h-4q-2 5 -2.5 9t-2.5 9h-4q-2 9 -2.5 18t-2.5 18h-4v36h4q2 5 2.5 11t2.5 11q3 2 5 5t4 4h9v5h35q7 -8 15.5 -10t16.5 -8l4 -14q5 -3 9 -6.5t9 -6.5q2 -5 2.5 -9t2.5 -9q2 -2 4.5 -2.5t4.5 -2.5q1 -5 2 -9t2 -9l9 -4 q2 -4 2.5 -7t2.5 -7h4q2 -5 2.5 -9t2.5 -8h4v-9q2 -2 4.5 -2.5t4.5 -2.5l9 -27l9 -4q2 -5 2.5 -9t2.5 -9q2 -2 4.5 -2.5t4.5 -2.5q1 -5 2 -9t2 -9l9 -4q2 -5 2.5 -9t2.5 -9q2 -2 4.5 -2.5t4.5 -2.5q1 -5 2 -9t2 -9l9 -4q2 -5 2.5 -9t2.5 -9q2 -2 4.5 -2.5t4.5 -2.5 q1 -5 2 -9t2 -9l9 -4q2 -5 2.5 -9t2.5 -9q2 -2 4.5 -2.5t4.5 -2.5q1 -5 2 -9t2 -9l9 -4q2 -5 2.5 -9t2.5 -9q2 -2 4.5 -2.5t4.5 -2.5q1 -5 2 -9t2 -9l9 -4q2 -5 2.5 -9t1.5 -9l9 -4v-9h5v-9q2 -2 4.5 -2.5t4.5 -2.5q1 -5 2 -9t2 -9l9 -4q2 -5 2.5 -9t2.5 -9q2 -2 4.5 -2.5 t4.5 -2.5v-9h4v-9h5l4 -13q2 -2 4.5 -2.5t4.5 -2.5q2 -5 2.5 -9t2.5 -9l9 -4q1 -5 2 -9t2 -9q2 -2 4.5 -2.5t4.5 -2.5q2 -5 2.5 -9t2.5 -9l9 -4q1 -5 2 -9t2 -9q2 -2 4.5 -2.5t4.5 -2.5q2 -5 2.5 -9t2.5 -9l9 -4q1 -5 2 -9t2 -9q2 -2 4.5 -2.5t4.5 -2.5q2 -5 2.5 -9t2.5 -8 q2 -2 4.5 -2.5t4.5 -2.5v-9h4v-9h5l4 -13q2 -2 4.5 -2.5t4.5 -2.5q2 -5 2.5 -9t2.5 -9l9 -4q1 -5 2 -9t2 -9q2 -2 4.5 -2.5t4.5 -2.5q2 -5 2.5 -9t2.5 -9l9 -4q1 -5 2 -9t2 -9q2 -2 4.5 -2.5t4.5 -2.5q2 -5 2.5 -9t2.5 -9l9 -4q1 -5 2 -9t2 -9q2 -2 4.5 -2.5t4.5 -2.5 q2 -5 2.5 -9t1.5 -9l9 -4v-9h5v-9q2 -2 4.5 -2.5t4.5 -2.5v-9l9 -4v-9q5 -8 10 -14t8 -17zM808 995q51 -1 84 -28t46 -66q4 -12 2.5 -26t-5 -27.5t-8 -24.5t-7.5 -17q-3 2 -6.5 2.5t-6.5 2.5q-2 2 -2.5 4.5t-2.5 4.5q-5 1 -9 2t-9 2l-4 9q-5 2 -9 2.5t-9 2.5q-2 2 -2.5 4.5 t-2.5 4.5q-5 1 -9 2t-9 2l-4 9q-5 2 -9 2.5t-9 2.5q-2 2 -2.5 4.5t-2.5 4.5q-5 1 -9 2t-9 2l-4 9q-5 2 -9 2.5t-9 2.5q-2 2 -2.5 4.5t-2.5 4.5h-9v4h-9l-4 9q-9 5 -15.5 6t-11.5 12q8 5 6.5 5.5t2.5 8.5q7 5 13.5 10.5t13.5 11.5l4 9h9v4q5 2 9 2.5t9 2.5v4h23v5zM700 905 q11 -2 21.5 -7.5t18.5 -10.5q2 -2 2.5 -4.5t2.5 -4.5q5 -1 9 -2t9 -2l4 -9q5 -2 9 -2.5t9 -2.5v-4q4 -2 7 -2.5t7 -2.5l4 -9q5 -1 9 -2t9 -2q2 -2 2.5 -4.5t2.5 -4.5h9l4 -9q5 -2 9 -2.5t9 -2.5q2 -2 2.5 -4.5t2.5 -4.5q5 -1 9 -2t9 -2l4 -9h9q2 -2 3.5 -4.5t5.5 -4.5 q-23 -42 -47 -81t-47 -81q-7 2 -6 1.5t-3 3.5q-12 2 -18 7.5t-14 10.5h-9l-4 9h-9q-2 2 -2.5 4.5t-2.5 4.5q-5 1 -9 2t-9 2l-4 9q-5 2 -9 2.5t-9 2.5l-4 8q-5 2 -9 2.5t-9 2.5q-2 2 -2.5 4.5t-2.5 4.5q-5 1 -9 2t-9 2l-4 9h-9q-9 5 -14.5 10.5t-17.5 7.5q2 6 2.5 11.5 t2.5 11.5h4v9l9 4q2 5 2.5 9t2.5 9h4v9q2 2 4.5 2.5t4.5 2.5q2 5 2.5 9t2.5 9l9 4l9 27q2 2 4.5 2.5t4.5 2.5q1 5 2 9t2 9l9 4zM592 716q8 -1 10.5 -1t7.5 -3v-5h9v-4h9q2 -2 2.5 -4.5t2.5 -4.5q5 -2 9 -2.5t9 -2.5l4 -8h9q2 -2 2.5 -4.5t2.5 -4.5q5 -2 9 -2.5t9 -2.5l4 -9 h9l2 -4t2 -5q5 -1 9 -2t9 -2q2 -2 2.5 -4.5t2.5 -4.5q5 -2 9 -2.5t9 -2.5l4 -9h9q2 -2 2.5 -4.5t2.5 -4.5h9v-4h9q2 -2 3.5 -4.5t5.5 -4.5v-9q-5 -3 -6 -4.5t-1 -2.5v-2.5t-2 -4.5h-5v-9l-9 -4v-9h-4v-9q-2 -2 -4.5 -2.5t-4.5 -2.5v-9h-5v-9l-9 -4l-9 -27q-2 -2 -4.5 -2.5 t-4.5 -2.5q-1 -5 -2 -9t-2 -9l-9 -4q-2 -5 -2.5 -9t-2.5 -9q-2 -2 -4 -2.5t-4 -2.5q-2 -5 -2.5 -9t-2.5 -9l-9 -4l-9 -27l-9 -4v-9h-4v-9q-2 -2 -4.5 -2.5t-4.5 -2.5q-2 -5 -2.5 -9t-2.5 -9l-9 -4q-1 -5 -2 -9t-2 -9q-2 -2 -4.5 -2.5t-4.5 -2.5v-9h-5v-9l-9 -4l-9 -27 q-2 -2 -4.5 -2.5t-4.5 -2.5q-1 -5 -2 -9t-2 -9l-9 -4q-2 -5 -2.5 -9t-2.5 -9q-2 -2 -4.5 -2.5t-4.5 -2.5q-1 -5 -2 -9t-2 -9l-9 -4l-9 -27q-2 -2 -4.5 -2.5t-4.5 -2.5q-2 -5 -2.5 -9t-2.5 -9l-9 -4q-1 -5 -2 -9t-2 -9l-9 -4l-9 -27q-2 -2 -4.5 -2.5t-4.5 -2.5v-9h-5v-9 l-9 -4q-1 -5 -2 -9t-2 -9q-2 -2 -4.5 -2.5t-4.5 -2.5q-2 -5 -2.5 -9t-2.5 -9l-9 -4l-9 -27q-2 -2 -4.5 -2.5t-4.5 -2.5v-9h-4v-9l-9 -4q-1 -5 -2 -9t-2 -9q-2 -2 -4.5 -2.5t-4.5 -2.5v-9q-5 -8 -10.5 -14t-7.5 -17l-14 4v5l-13 4q-2 2 -2.5 4.5t-2.5 4.5h-9l-4 9h-9l-9 14 h-9l-9 13h-9q-2 2 -2.5 4.5t-2.5 4.5h-9l-9 14h-9l-9 13h-9l-4 9h-9q-2 2 -2.5 4.5t-2.5 4.5q-3 2 -6.5 2.5t-6.5 2.5v4q-5 4 -7.5 5.5t-10.5 3.5l4 23l9 4q2 5 2.5 9t2.5 9q2 2 4.5 2.5t4.5 2.5q1 5 2 9t2 9l9 4q2 5 2.5 9t2.5 9q2 2 4.5 2.5t4.5 2.5q1 5 2 8.5t2 8.5 q2 2 4.5 2.5t4.5 2.5q2 5 2.5 9t2.5 9l9 4q1 5 2 9t2 9q2 2 4.5 2.5t4.5 2.5l9 27l9 4v9h5v9q2 2 4.5 2.5t4.5 2.5v9h4v9l9 4q2 5 2.5 9t2.5 9q2 2 4.5 2.5t4.5 2.5v9h4v9l9 4q2 5 2.5 9t2.5 9q2 2 4.5 2.5t4.5 2.5q1 5 2 9t2 9l9 4q2 5 2.5 9t2.5 9q2 2 4.5 2.5t4.5 2.5 l9 26q2 2 4.5 2.5t4.5 2.5q1 5 2 9t2 9l9 4q1 5 2 9t2 9q2 2 4.5 2.5t4.5 2.5q2 5 2.5 9t2.5 9l9 4q1 5 2 9t2 9q2 2 4.5 2.5t4.5 2.5q2 5 2.5 9t2.5 9l9 4q1 5 2 9t2 9q2 2 4.5 2.5t4.5 2.5q2 5 2.5 9t2.5 9l9 4q1 5 2 9t2 9q2 2 4.5 2.5t4.5 2.5l9 27l9 4v9h5v9 q2 2 4.5 2.5t4.5 2.5q1 5 2 9t2 9l9 4v9q5 8 10 14t8 17zM98 609h409q-2 -4 -2.5 -7t-2.5 -7h-4v-9h-5v-9l-9 -4q-1 -5 -2 -9t-2 -9q-2 -2 -4.5 -2.5t-4.5 -2.5q-2 -5 -2.5 -9t-2.5 -9l-9 -4q-1 -5 -2 -9t-2 -9q-2 -2 -4.5 -2.5t-4.5 -2.5q-2 -5 -2.5 -9t-2.5 -9l-9 -4 q-1 -5 -1.5 -9t-2.5 -9h-4q-2 -4 -2.5 -7t-2.5 -7l-9 -4q-1 -5 -2 -9t-2 -9q-2 -2 -4.5 -2.5t-4.5 -2.5q-2 -5 -2.5 -8.5t-2.5 -8.5q-2 -2 -4.5 -2.5t-4.5 -2.5q-1 -5 -2 -9t-2 -9l-9 -4q-2 -5 -2.5 -9t-2.5 -9q-2 -2 -4.5 -2.5t-4.5 -2.5q-1 -5 -2 -9t-2 -9l-9 -4 q-2 -5 -2.5 -9t-2.5 -9q-2 -2 -4.5 -2.5t-4.5 -2.5q-1 -5 -2 -9t-2 -9l-9 -4q-2 -5 -2.5 -9t-2.5 -9q-2 -2 -4.5 -2.5t-4.5 -2.5v-9h-4v-9l-14 -9v-4h-179q-8 23 -6.5 57.5t1.5 63.5v252zM1953 609v-373h-269q-20 48 -40.5 94t-40.5 94h-5l-4 14l-9 4v9h-5v9q-2 2 -4.5 2.5 t-4.5 2.5v9l-9 4q-1 5 -2 9t-2 9q-2 2 -4.5 2.5t-4.5 2.5v9l-9 4q-2 5 -2.5 9t-2.5 9q-2 2 -4.5 2.5t-4.5 2.5v9l-8 4q-2 5 -2.5 9t-2.5 9q-2 2 -4.5 2.5t-4.5 2.5l-18 36h467zM1414 236h-808q1 5 2 9t2 9l9 4q2 5 2.5 9t2.5 9q2 2 4.5 2.5t4.5 2.5q1 5 2 9t2 9l9 4 q2 5 2.5 9t2.5 9q2 2 4.5 2.5t4.5 2.5v9h4v9l9 4q2 5 2.5 9t2.5 9q2 2 4.5 2.5t4.5 2.5v9h4v9l9 4q2 5 2.5 9t1.5 9l4 2t5 2q2 5 2.5 9t2.5 9q2 2 4.5 2.5t4.5 2.5q1 5 2 9t2 9l9 4q2 5 2.5 9t2.5 9q2 2 4.5 2.5t4.5 2.5q1 5 2 9t2 9l9 4q2 5 2.5 9t2.5 9q2 2 4.5 2.5 t4.5 2.5v9l9 4q1 5 2 9t2 9q2 2 4.5 2.5t4.5 2.5v9h5v9l9 4v9h4q2 2 2.5 4.5t2.5 4.5h395l27 -45l9 -27h4v-9h5v-9h4v-9h5v-9h4q2 -5 2.5 -9t2.5 -9h4v-13h5l9 -27h4v-9h5v-9h4v-9h5v-9h4l32 -72h4v-9l9 -9v-9l9 -4v-9q2 -2 4.5 -2.5t4.5 -2.5v-9l9 -4v-9q2 -2 4.5 -2.5 t4.5 -2.5v-9h5zM1607 344h5v-14h4v-9h5q1 -5 2 -9t2 -9h5l18 -54h4q2 -5 2.5 -9t2.5 -9h4v-13h5q3 -11 6.5 -20.5t6.5 -20.5h5q5 -9 6 -16t3 -20l-27 -8q-2 -2 -2.5 -4.5t-2.5 -4.5q-5 -2 -9 -2.5t-9 -2.5l-4 -9q-5 -1 -9 -2t-9 -2q-2 -2 -2.5 -4.5t-2.5 -4.5l-27 -9l-4 -9 q-5 -2 -9 -2.5t-9 -2.5q-2 -2 -2.5 -4.5t-2.5 -4.5l-4 5q-11 11 -17 23.5t-15 25.5q-2 2 -4 2.5t-4 2.5v9l-9 4v9l-9 4v9q-2 2 -4.5 2.5t-4.5 2.5v9l-9 4v9q-2 2 -4.5 2.5t-4.5 2.5v9l-9 4v9h-5l-4 14l-9 4q-8 13 -14.5 27t-17.5 23v4q11 2 17.5 7.5t14.5 10.5h9l4 9h9l9 9 h9q2 2 2.5 4.5t2.5 4.5l27 9l4 9l27 9l4 9h9q8 5 14.5 10t17.5 8zM1576 47q11 2 17 7.5t14 10.5h9q2 2 2.5 4.5t2.5 4.5q5 2 9 2.5t9 2.5l4 9q5 1 9 2t9 2q2 2 2.5 4.5t2.5 4.5h9v5h9l4 9h9v4q7 -2 6 -1t3 -3q14 -9 20.5 -24.5t15.5 -29.5q2 -2 4.5 -2.5t4.5 -2.5v-9l9 -4 v-9q2 -2 4.5 -2.5t4.5 -2.5v-9h5l4 -13q2 -2 4.5 -2.5t4.5 -2.5v-9h5l4 -13q2 -2 4.5 -2.5t4.5 -2.5v-9h4q2 -3 2.5 -6.5t2.5 -6.5q2 -2 4.5 -2.5t4.5 -2.5v-9l9 -4v-9q2 -2 4.5 -2.5t4.5 -2.5v-9l9 -4v-9q2 -2 4.5 -2.5t4.5 -2.5v-9l9 -4v-9q2 -2 4.5 -2.5t4.5 -2.5v-8 q2 -2 4.5 -2.5t4.5 -2.5v-9l9 -4q8 -14 10.5 -28t2.5 -35h-4q-2 -6 -2.5 -11.5t-2.5 -11.5h-4v-9l-14 -9v-9l-13 -4l-14 -18q-5 -3 -16.5 -7.5t-25 -8t-27.5 -5t-25 2.5v4q-5 2 -11 2.5t-11 2.5l-23 27l-9 4v14h-4q-2 5 -2.5 9t-2.5 9h-4v13h-5q-1 5 -2 9t-2 9h-5v14h-4 q-2 5 -2.5 9t-2.5 9h-4v13h-5v9h-4q-2 5 -2.5 9t-2.5 9h-4v13h-5q-1 5 -2 9t-2 9h-5v14h-4q-2 5 -2.5 9t-2.5 9h-4v13h-5v9h-4q-2 6 -2.5 11.5t-2.5 11.5h-4v9h-5l-4 22h-5q-5 11 -8 21t-5 24zM179 20q10 -2 15.5 -5t11.5 -8v-5h9l4 -9h9l9 -13h9l9 -14h9q2 -2 2.5 -4.5 t2.5 -4.5h9l9 -13h9l9 -14h9l4 -9h9l9 -13h9q2 -2 2.5 -4.5t2.5 -4.5l18 -9q-7 -11 -14.5 -13t-17.5 -10l-9 -13h-9l-9 -13h-9l-4 -9h-9q-2 -2 -2.5 -4.5t-2.5 -4.5q-3 -2 -6.5 -2.5t-6.5 -2.5l-9 -13h-9q-2 -2 -2.5 -4.5t-2.5 -4.5h-9l-9 -14h-9l-9 -13h-9l-4 -9h-9l-9 -14 h-9l-9 -13h-9l-4 -9h-9v-5q-5 -4 -7.5 -5.5t-10.5 -3.5q14 78 28.5 155t29.5 155z" />
<glyph unicode="&#x105;" d="M385 1283q36 1 69 -5t61 -18.5t49.5 -30.5t33.5 -40v-25h8v-26h9q5 -17 2.5 -38.5t-9 -42.5t-14.5 -38.5t-13 -25.5q-9 -6 -17.5 -12.5t-16.5 -12.5v-9h-17q-2 -5 -4.5 -8.5t-4.5 -8.5h-25q-50 -20 -96 -18.5t-83 19t-63.5 48.5t-38.5 70q-7 22 -5 42.5t7.5 38.5t12.5 34 t10 30l34 26v8h17q2 5 4.5 9t4.5 8h17v9q8 4 17.5 5t18.5 1.5t17.5 2.5t14.5 8zM1841 -250h-357v443q0 33 1 70.5t-0.5 73.5t-7.5 67.5t-19 52.5l-17 8v17l-17 17h-17q-2 5 -4 9l-4 8q-12 7 -36 11.5t-50 5.5t-49.5 -3t-35.5 -14q-23 -5 -34 -16.5t-25 -25.5q-7 -5 -13.5 -9 t-12.5 -8q-15 -22 -22 -51t-10 -62.5t-2.5 -69.5t0.5 -73v-451h-349v1030h349v-136h8q32 55 85.5 93.5t119.5 59.5h42q40 12 85.5 10.5t89 -11.5t81 -26t60.5 -32l42 -51l34 -26v-17q5 -2 9 -4.5t8 -4.5v-17h9q5 -13 8.5 -25.5t8.5 -25.5h8l9 -51h8v-42q14 -48 15.5 -110.5 t1.5 -128.5v-485zM232 780h357v-1030h-349q-10 27 -12.5 68t-1.5 86.5t3.5 90t2.5 78.5v707z" />
<glyph unicode="&#x106;" d="M1101 1332q0 -7 -0.5 -11t-2.5 -9q-2 -2 -4 -2.5t-4 -2.5v-3h-6l-3 -6l-11 -3v-2h-8v-3h-9v-3h-8v-3h-14v-3h-17v-2h-17v-3q-2 2 -8 3v-3h-14v-3h-22v-3h-17v-3h-17l-20 -8l-1.5 -4.5t-0.5 -6.5q8 -5 16.5 -8.5t16.5 -8.5v-6q14 -2 18.5 -9t15.5 -10q2 -6 2.5 -6.5 t5.5 -2.5q2 -5 2.5 -6.5t3.5 -4.5h3l2 -8l6 -3l3 -11h3l2 -8t3 -9h3v-8h3v-6h3v-8h2v-12h3v-11h3v-17q8 -26 8.5 -59t-0.5 -67q0 -16 -0.5 -32t-1.5 -32h-3v-14h-3v-11h-3v-9h-3v-11h-2l-3 -14h-3v-5h-3v-9h-3v-5h-2v-6l-6 -3v-5h-3q-3 -7 -0.5 -8.5t-7.5 -3.5 q-1 -11 -9 -19l-5 -3v-6h-3l-4.5 -6t-3.5 -8h-6v-5q-7 -7 -14 -13l-14 -12l-3 -6h-5q-10 -10 -17 -20h-6q-2 -2 -4 -5l-4 -6h-6q-8 -11 -17 -20h-5q-13 -13 -25 -28q-8 -5 -14 -11v-5l-9 -6q-2 -3 -4.5 -9.5t-4.5 -14t-3 -15.5t1 -14h3v-11h3q0 -1 0.5 -4t1.5 -8h3v-5l6 -3 v-6q-3 0 5 -2l10 -10t7 -13h6v-5q8 -2 12.5 -7t9.5 -10v-3h6l3 -6h2l6 -8h6l8 -11h6q2 -4 4.5 -7.5t6.5 -6.5h5l9 -11h5q4 -5 7.5 -9t6.5 -8h6l3 -6h3q2 -6 5 -8h6q5 -7 11 -13t11 -12l9 -6v-11h2q2 1 2 2.5t4 0.5v-3q4 -3 6 -7t5 -7l9 -6v-5l11 -9v-5q2 -2 4 -3t4 -3v-6 l6 -2v-6l5 -3v-5l6 -3v-6h3q4 -7 0 -11h5q2 -8 5.5 -12.5t6.5 -9.5v-6h2l3 -17h3v-5h3v-12h3v-11h2v-11h3v-17h3l3 -61h-3v-40h-3v-19h-3v-14h-2v-14h-3v-12h-3l-3 -19h-3v-9h-2v-8h-3l-3 -11h-3v-6h-3l-8 -25l-6 -3l-2 -11l-6 -3l-3 -11q-2 -2 -4 -3t-4 -3v-5l-9 -6 q-8 -13 -22.5 -31t-30.5 -22v-6h-5v-2l-9 -3l-4 -6t-4 -5h-6l-3 -6h-5l-3 -6l-11 -2l-3 -6h-6v-3h-5v-3l-6 3l-3 -8h-8l-3 -6l-14 -3v-2h-5v-3l-12 -3v-3l-16 -3v-2l-12 -3v-3h-11v-3h-8v-3h-9v-2h-11q-39 -14 -95 -22.5t-116 -10t-117 5t-98 21.5l-22 3v3h-8v2h-9v3h-8v3 h-9v3l-11 3v2q-7 2 -13.5 4.5t-14.5 4.5l-3 5l-14 3l-2 6l-12 3l-2 5h-6v3h-6q-1 2 -1 4q0 1 -1 2h-6l-3 5h-5l-9 11h-5q-5 5 -8.5 10t-8.5 10q-8 8 -15.5 13.5t-9.5 17.5h-6l-34 56v8q-9 22 -15.5 48t-6.5 62v42h3v19h3v14h2v11h3v12h3l3 16h3q0 1 0.5 4t1.5 8h3v5h3v9 q0 1 1 1q3 0 5 1l2 8t3 9l6 3v6q4 1 8 5v6l6 4t5 4v6q2 2 4.5 2.5t4.5 2.5q7 10 17 20h5q4 5 7 8.5t7 8.5h6q2 2 2.5 4t2.5 4l12 3v3q2 2 8 3l3 5l11 3q76 48 178 67t228 20q0 14 -5 30.5t-12 25.5q-2 2 -5 4l-6 4l-6 9h-5v2q-3 3 -4.5 3.5t-6.5 2.5v6h-3q-2 3 -3.5 4.5 t-2.5 6.5h3v3h-6v106q-28 -1 -58.5 -1.5t-55.5 7.5q-8 1 -14.5 1.5t-13.5 0.5v3h-12v3l-33 6v2h-6v3l-17 3v3l-11 3v2h-8v3l-11 3v3l-12 3v2q-2 2 -8 3l-3 6l-11 3l-6 8q-6 4 -14.5 10.5t-17 14t-15.5 15.5t-9 16h-5l-3 9h-3v5l-5 3l-3 11l-6 3l-3 11h-2l-3 11h-3v9h-3v5h-3 v9h-2v5h-3v12q-9 24 -14 54.5t-5.5 62.5t3.5 63.5t13 57.5v11h3l3 17h2l3 14h3l3 11h3q0 2 0.5 5.5t1.5 8.5q2 2 6.5 3.5t7.5 1.5v3h-5l3 9h2v5h3v6l6 3v5l5 3v6q2 1 4.5 2.5t7.5 5.5l2 8l23 20v6h5q6 10 15.5 15.5t18.5 12.5l6 8h5l3 6q2 0 3.5 0.5t2.5 0.5t2 1v3h6l3 6 l8 3v2h6l5 6h6v3h6v3h5v2h6v3h5v3q5 2 9 3t8 3v2h9v3h5v3h9v3h5v3h9v2h8v3q6 2 9 2t8 -2v6q14 2 27.5 6t25.5 8h14v3h17v2h14v3h22v3h25v3h471zM1546 1332h93q3 -8 4 -20.5t0.5 -26t-1 -27.5t-0.5 -24v-219h201q29 0 59.5 1t55.5 -3v-93q-78 0 -161 1t-155 -1v-316h-96v316 h-316v95h316v317zM434 1189v-3h-2v-11l-6 -3l-3 -11l-5 -3v-8l-9 -3q1 -6 3 -8h-3l-3 -14h-2v-6h-3v-11q-19 -54 -15.5 -112t20.5 -107v-11h3v-5h3l3 -17h3l2 -8t3 -9h3v-6h3v-5h3l2 -8t3 -9l6 -3v-8q2 -2 4 -3t4 -3q2 -4 3 -8t3 -9h5q2 -2 3 -8l14 -11v-6l6 -3q4 -5 8 -9.5 t9 -9.5q6 -5 10 -7t6 -10q5 -1 7 -1t5 -2v-3h5v-3h6l3 -5l11 -3v-3q4 -2 8 -2.5t9 -2.5v-3h8v-3h8v-3h9v-3q3 -1 13 -2t22 -1.5t23 -0.5t15 2v2h8v3h11q46 18 73.5 54t44.5 84v11h3v11h3v14h2v20h3l-3 100h-2v17h-3v11h-3v12h-3v11h-3v11h-2v6h-3l-3 16h-3l-3 14h-2v6h-3v8 h-3v6l-6 3v5h-2v6l-6 6v5l-6 3q-1 3 -1.5 5.5t-0.5 5.5l-9 6v5l-5 3v6q-4 3 -7.5 5.5t-6.5 5.5q-46 61 -127 87h-16v3q-16 4 -37 -0.5t-31 -8.5h-8v-3q-3 0 -5.5 -0.5t-5.5 -1.5v-3h-9v-3q-2 -2 -8 -3q-1 -2 -1.5 -2.5t-1.5 -2.5h-5l-9 -12q-7 -5 -13.5 -8t-8.5 -14h-9z M465 287l-3 -8q-6 -2 -12 -3t-13 -3v-5q-8 -2 -12.5 -5.5t-9.5 -6.5h-6v-2h-5v-3q-3 -2 -7 -1.5t-7 -1.5v-8h-6q-5 -7 -4 -5t-4 -1l-9 -11h-5q-15 -15 -28 -31l-9 -6v-5h-5l-3 -9h-3v-5l-6 -3l-2 -11l-6 -3l-3 -11h-3l-2 -11h-3v-9h-3v-8h-3v-9h-3v-14h-2v-16h-3 q-2 -8 -1 -19.5t3 -23t4.5 -21.5t4.5 -15v-8h3l3 -14h2q3 -6 4.5 -10t1.5 -13q8 -2 9 -5t5 -9h3l3 -8h5v-6q7 -4 10.5 -9.5t12.5 -7.5v-5h5v-6l14 -5v-6q10 -1 20 -8l3 -6q4 -2 8 -3t8 -3l3 -5h6v-3h5v-3h9v-3q3 0 5.5 -0.5t5.5 -1.5v-3l14 -3v-3h8v-3h9v-2h11v-3h11v-3h11 v-3h14v-3q11 0 21 -0.5t21 -1.5q4 -1 15.5 -2.5t24.5 -2t25 -0.5t17 2v3h25v2h17v3h17v3l22 3v3h8v2h9v3h11v3h6v3h8v3h6v2h8v3l17 6v3h5v2h6v3h6v3h5v3h6l3 5h5v3q4 3 14 3v6h3q1 2 1.5 2.5t1.5 2.5h5l9 11h5l3 6l11 8q4 5 7.5 9t6.5 8l6 3v6l11 8v6q2 0 2.5 0.5t1.5 0.5 t2 1v6l5 3v5l6 6v6h3v5h3v6h2v5h3v9h3v8h3v9h3v17q8 29 1 58t-15 48v6h-3v5l-6 6v5h-3l-2 9l-6 3v5l-11 9v5q-5 5 -10 8.5t-10 8.5v8q0 1 -1 1q-2 0 -2 -3q-1 1 -2 1q-4 0 -6 1q-4 5 -5.5 7.5t-2.5 4.5h-6l-6 8h-5l-3 6h-6q-2 2 -2 5q-5 2 -9 3t-8 3v3h-6v2h-5v3h-6v3l-17 6 v2h-8v3h-9v3h-8v3h-8v3h-12v2l-30 6v3h-29v3h-25v2q-6 1 -14.5 1.5t-17.5 0t-17 -1.5t-12 -2h-28q-11 -4 -24 -6t-24 -6h-11v-2l-20 -3v-3l-17 -3v-3q-4 -1 -3.5 0.5t-1.5 2.5h-6z" />
<glyph unicode="&#x107;" d="M341 -337q-35 0 -66 13.5t-54 36.5t-36.5 54t-13.5 66v836h501q-32 -75 -32 -153q0 -80 30 -149.5t82.5 -122t122 -82.5t149.5 -30q79 0 149 30t122.5 82.5t82.5 122t30 149.5q0 78 -32 153h501v-836q0 -35 -13.5 -66t-36.5 -54t-54 -36.5t-66 -13.5h-1366zM1237 516 q0 -44 -16.5 -83t-45.5 -68t-68 -45.5t-83 -16.5t-83 16.5t-68 45.5t-45.5 68t-16.5 83t16.5 83t45.5 68t68 45.5t83 16.5t83 -16.5t68 -45.5t45.5 -68t16.5 -83zM1024 900q-72 0 -133.5 -24t-112.5 -66h-607v389q0 35 13.5 66t36.5 54t54 36.5t66 13.5h1366q35 0 66 -13.5 t54 -36.5t36.5 -54t13.5 -66v-389h-607q-51 42 -112.5 66t-133.5 24zM1452 972q0 -11 8.5 -19.5t19.5 -8.5h226q12 0 20 8.5t8 19.5v226q0 12 -8 20t-20 8h-226q-11 0 -19.5 -8t-8.5 -20v-226z" />
<glyph unicode="&#x108;" d="M384 -39q-44 0 -83 17t-68 46t-45.5 68t-16.5 83v681q0 43 16.5 82t45.5 68t68 46t83 17h1280q44 0 83 -17t68 -46t45.5 -68t16.5 -82v-681q0 -44 -16.5 -83t-45.5 -68t-68 -46t-83 -17h-1280zM1792 854q0 27 -10 50t-27.5 40.5t-40.5 27.5t-50 10h-1280q-27 0 -50 -10 t-40.5 -27.5t-27.5 -40.5t-10 -50v-82h1536v82zM1792 516h-1536v-338q0 -27 10 -50t27.5 -40.5t40.5 -27.5t50 -10h1280q27 0 50 10t40.5 27.5t27.5 40.5t10 50v338zM597 260h427v-85h-427v85zM341 260h171v-85h-171v85z" />
<glyph unicode="&#x109;" d="M1266 793q42 5 80 -1.5t66 -21.5q-5 -29 -9.5 -58t-9.5 -58q-9 4 -17.5 7.5t-17.5 6.5q-16 6 -38 9.5t-44 3t-41 -6t-29 -18.5q-4 -5 -7.5 -12t-0.5 -17t12.5 -18.5t21.5 -16t24.5 -13.5t21.5 -11q23 -12 47 -28t41 -38.5t24 -51.5t-3 -67q-5 -16 -10.5 -30t-13.5 -25 q-18 -25 -47 -44.5t-66.5 -30.5t-80.5 -13.5t-88 6.5q-6 1 -20 3.5t-28 6t-25 7.5t-12 8q5 29 9.5 59t9.5 59q10 -5 19.5 -8.5t19.5 -8.5q17 -6 39 -11t45 -7t45 1t39 13q9 5 17.5 15t6.5 26q-4 22 -20 31.5t-33 19.5q-29 17 -58.5 32.5t-50.5 40.5q-16 17 -25 45 q-12 35 -5 66.5t25 57t42 43.5t46 27q32 14 70 18zM172 784h176q24 0 48 -0.5t39 -9.5q10 -6 15.5 -16.5t9 -23t5 -26.5t4.5 -27l51 -260h1l134 363h147v-1q-54 -136 -108.5 -267t-108.5 -267q-37 0 -73.5 -0.5t-73.5 -0.5l-123 466q-9 5 -17.5 9.5t-17.5 8.5 q-17 8 -34.5 15t-35.5 14q-3 1 -9.5 2.5t-13 3.5t-12 4t-6.5 4zM996 784q-21 -136 -42.5 -267.5t-43.5 -268.5h-139l87 536h138zM1877 247q-20 1 -39 1h-39q-12 0 -27.5 -1.5t-23.5 2.5l-16 79h-177q-7 -20 -14 -40.5t-15 -40.5h-145q42 100 81.5 195t81.5 195q6 14 13 34.5 t15.5 41t18.5 37.5t22 24q11 6 29.5 8.5t40.5 2.5t44 -0.5t39 -0.5zM1709 439q-11 51 -20.5 99t-20.5 99l-72 -198h113z" />
<glyph unicode="&#x10a;" d="M659 1027q52 1 97 -5.5t82 -20.5q6 -2 11.5 -3t10.5 -3l13 -6.5t13 -5.5h3q3 -2 6.5 -4t5.5 -4h4q4 -2 7.5 -4t6.5 -4t6.5 -3t7.5 -3l59 -39q1 -2 1.5 -2.5t1.5 -2.5q4 -3 7.5 -5t7.5 -5t7 -6.5t8 -5.5q1 4 4 2v2l-1 1h3q2 2 3 4t4 1v1l-1 1h2q2 2 2.5 3.5t3.5 0.5v1 l-1 1q5 4 9 6.5t9 5.5q3 2 11 9t10 5v2q0 1 4 3.5t5 2.5l4 2l5 4q3 2 6.5 3.5t7.5 3.5q23 14 48.5 24.5t52.5 20.5q9 3 18.5 5t17.5 4h6l33 8h10.5t10.5 1t15 2t21 1.5t21 0t16 -1.5q5 -1 11 -0.5t10 -0.5h13q14 -4 30 -4.5t30 -5.5q22 -8 43 -12.5t41 -13.5q33 -14 63 -33 t55 -37q1 -2 2 -2.5t2 -2.5h2l4 -5h2q0 -1 -1 -2q1 0 1.5 0.5t1.5 0.5q2 -2 3.5 -5t3.5 -5l2 2l6 -6q0 -2 0.5 -2t0.5 -1t1 -1h3q0 -1 -0.5 -1.5t-0.5 -1.5l2 -2q1 0 1.5 0.5t1.5 0.5l9 -9t6 -9q2 -2 4.5 -3.5t4.5 -3.5l4.5 -4.5t0.5 -4.5h3q1 -1 3.5 -4t0.5 -4q2 0 3 1v-3 q2 -1 2.5 -1.5t2.5 -1.5v-3l5 -3l3 -8l5 -3q19 -26 34 -53.5t28 -56.5l2 -7l13 -33q2 -4 1.5 -6.5t0.5 -7.5q3 -8 6 -18.5t5 -18.5v-8q3 -9 4 -19.5t4 -20.5q0 -8 -0.5 -15t1.5 -15q1 -6 1.5 -15.5t0 -19.5t-1 -19t-1.5 -15v-14q-3 -11 -4 -23t-4 -23q-10 -34 -19 -67 t-26 -59l-8 -19l-3 -2l-2 -7q-3 -5 -6.5 -9t-5.5 -8l-2 -5l-4 -5q-2 -2 -1.5 -3t-1.5 -3q-2 -3 -7.5 -9t-4.5 -8q-9 -10 -15.5 -17.5t-12.5 -16.5q-5 -4 -8.5 -8t-8.5 -8v-2q-2 -2 -4.5 -3t-4.5 -3l-11 -13l-2.5 -2.5t-3.5 0.5l2 -2l-31 -24q-2 -2 -6.5 -6t-6.5 -2v-3 q-4 -4 -11 -7.5t-12 -6.5q-2 -2 -5 -4.5t-5 -0.5v-2q-4 -4 -8.5 -5.5t-8.5 -3.5l-22 -12t-22 -11q-17 -8 -35 -12.5t-36 -11.5q-9 -3 -19 -4.5t-19 -4.5q-5 -1 -11 -1.5t-12 -0.5q-13 -4 -27.5 -4.5t-30.5 -0.5q-5 0 -8.5 -0.5t-6.5 0.5h-19q-11 0 -21 0.5t-18 2.5l-26 3 q-15 5 -31 7t-31 7q-38 13 -70 28.5t-62 35.5h-2q-2 1 -2.5 2.5t-2.5 2.5h-2l-10 8h-2q-2 1 -2 3t-1 2q0 1 -1 -0.5t-3 0.5l-7 7h-2v2h1v1q-1 -1 -3 -1q-1 0 -1 2q0 1 -1 2q-2 0 -2 -1l-7 6v3l-2 -2l-8 9q-1 -1 -2 -1h-1q-5 -2 -8.5 -7t-8.5 -8q-11 -8 -20.5 -15.5 t-20.5 -14.5q-31 -20 -65.5 -35.5t-72.5 -29.5l-51 -12q-4 0 -7.5 -0.5t-7.5 -0.5q-14 -4 -30.5 -4t-33.5 -2l-24 -2q-5 2 -14 2t-15 1h-14q-8 2 -17.5 3t-16.5 3h-8q-17 5 -35 9t-34 10q-4 2 -7.5 2t-7.5 2q-35 15 -67 32t-61 38l-3 4l-31 24l-16 17q-10 6 -25 26l-9 8 q-8 11 -16 20.5t-16 20.5v3q-1 2 -3 4l-4 4q0 2 -0.5 2.5t-0.5 2.5q-5 5 -7 9l-2 4q-3 6 -7 12t-7 12q-3 5 -5 10l-4 10q-1 5 -6 10v4l-11 23q-2 4 -1.5 7t-1.5 7l-7 14q0 8 -1 10q-3 8 -5.5 18.5t-5.5 18.5v8q-2 6 -3 14t-3 15l-2 39q-2 5 -2.5 15.5t-0.5 21.5t1 21t3 15 v13q3 11 3 23.5t4 23.5q5 15 9 31.5t10 30.5q0 1 0.5 3.5l1.5 7.5l4 5q0 6 1 7q1 2 3 5.5t3 5.5v4q1 2 3 4.5t3 4.5v4l9 15q2 3 2 6t2 6l21 31q2 3 3 6.5t3 6.5q9 12 19 24t19 24q10 10 12 11q17 20 38 37l7 8q10 8 19 14t19 13q2 2 2 4q25 17 52.5 30.5t56.5 25.5q4 2 7 2 t8 2q20 8 43 12t47 11q8 2 17 1.5t17 1.5q5 2 10 0.5t8 1.5zM1361 635q-5 1 -7.5 2.5t-6.5 2.5q-8 3 -15.5 4.5t-15.5 3.5q-11 2 -26.5 -0.5t-21.5 -4.5l-11 -3q-5 -1 -10 -6q-1 0 -2 -0.5t-2 -0.5q-16 -10 -30.5 -28t-22.5 -35q-7 -15 -10.5 -32.5t-4 -36t2.5 -37t9 -33.5 q5 -11 13.5 -22t18.5 -17q3 -2 5.5 -2t4.5 -2q11 -5 29 -9t35 1q8 2 14.5 2.5t14.5 3.5l8 58h-1q-4 -3 -12 -4.5t-14 -3.5q-17 -7 -38 1q-6 2 -11 4t-8 7q-7 10 -10.5 24t-3.5 28.5t3.5 28.5t9.5 25q8 15 21 26.5t36 11.5h14q5 -2 12.5 -4t12.5 -5q3 -2 5.5 -4.5t5.5 -0.5 q2 3 1.5 7.5t1.5 8.5l4 20t2 21zM262 642l-43 -259h53q0 11 3 25t5 24q1 4 1 8v8q5 17 7 35.5t7 35.5v8q2 8 3.5 17.5t3.5 17.5q2 5 1.5 8t1.5 6l4 -193h38q1 6 3.5 10.5t4.5 9.5q0 1 0.5 3.5l1.5 7.5l10 23q2 4 1.5 7t1.5 8q8 17 14 36.5t14 37.5l3 11l10 23q2 4 2 8t2 7 q1 -11 -2 -24t-5 -23v-8q-2 -9 -3.5 -19t-3.5 -19v-9q-2 -6 -3 -14t-3 -15l-2 -16q-2 -10 -4 -22t-3 -23h55v3q2 3 1.5 7t0.5 9q2 8 4 18t4 18q0 4 0.5 7.5t0.5 7.5q6 20 8 43.5t8 43.5l2 24q2 6 3 13.5t3 14.5l2 15q5 17 6 35h-86q-1 -1 -1 -2q-1 -6 -3 -10.5t-4 -9.5 q-1 -1 -1 -9l-5 -10q-2 -5 -2.5 -9t-2.5 -9q-5 -13 -10 -27l-10 -28q0 -6 -1 -7l-10 -24q-1 -4 -1 -6.5t-2 -4.5v1q-2 1 -2.5 6.5t0 12.5l1 14t0.5 11l-3 111h-79zM1770 642q0 -13 -2 -27t-5 -25q-2 -5 -1.5 -11.5t-3.5 -8.5l-7 8q-11 13 -30 18.5t-40 -3.5 q-20 -8 -33.5 -26.5t-21.5 -38.5l-2 -10t-3 -10q-11 -37 -1.5 -70.5t32.5 -48.5q7 -4 17 -7.5t21 -0.5h8l18 8q4 1 5 2q4 2 6.5 5.5t6.5 5.5v-8q-2 -2 -2 -5v-6h26.5t26.5 -1q0 11 5 24v9q2 7 3 15t3 14v9q2 8 3.5 18.5t3.5 19.5q0 4 0.5 7.5t0.5 7.5q4 14 5.5 30t5.5 30 q1 4 1 8v8q2 5 2 11t2 12q2 8 4 17.5t2 19.5h-56zM861 593q2 8 3 16l2 16h-53v-3q-4 -5 -3.5 -12t-1.5 -14q-4 -11 -5.5 -24.5t-4.5 -24.5q0 -4 -0.5 -7.5t-0.5 -7.5q-2 -7 -3 -15t-3 -16v-8q-2 -7 -3 -15t-3 -14v-10q-5 -16 -3.5 -34t9.5 -29q4 -8 13 -10t20 -1.5t22 2.5 t19 4v8q1 1 2 6.5t2 11.5t1.5 12t0.5 8h-2q-5 -4 -13.5 -2t-13.5 3q-1 2 -1.5 2.5t-1.5 2.5q-2 3 -1.5 12t1.5 14q4 14 5.5 29.5t5.5 29.5q2 6 2 10.5t2 9.5q4 -2 14.5 -2t12.5 2q2 3 1.5 7.5t0.5 9.5q5 18 5 33h-27zM966 599q-2 -2 -5 -1.5t-6 -1.5q-3 -1 -8.5 -3t-8.5 -4 q-18 -11 -30 -29t-20 -39l-6 -33q-2 -8 -1 -20.5t3 -17.5l2 -12q11 -38 46 -52q5 -2 9 -3l8 -2h7q7 -2 14.5 -2t15.5 1h15q8 2 16.5 3.5t15.5 4.5l10 51h-3q-4 -4 -10.5 -4.5t-12.5 -2.5q-14 -4 -29 -4.5t-27.5 3t-19.5 13t-4 26.5h109v1h2q0 9 2 17.5t4 16.5q2 11 -0.5 25 t-4.5 20q-11 27 -28 38t-55 11zM1366 540q5 1 8.5 2.5t8.5 2.5q8 2 19.5 3t22.5 1h16q4 -2 7 -2.5t7 -2.5q3 -6 4 -12t-1 -15h-16q-3 2 -9.5 2t-13 -1t-12.5 -2.5t-8 -1.5l-13 -3q-32 -14 -42 -40q-2 -5 -2 -9t-2 -9t-2.5 -14.5t1.5 -16.5q1 -4 3 -10.5t4 -9.5 q8 -13 27.5 -21t40.5 1q11 5 17.5 10.5t14.5 10.5v-10q-2 -2 -1.5 -4.5t0.5 -5.5h49q0 24 6 42q2 7 1.5 14t1.5 13l6 51q5 16 5 35.5t-8 32.5q-11 16 -33 24q-2 1 -11 1q-8 2 -19 3t-19 -1h-11q-8 -2 -21 -4t-18 -7q-2 -2 -1.5 -4t-0.5 -6q-2 -9 -3 -18t-3 -19zM492 540 q5 1 9 2.5t8 2.5q9 3 20.5 3.5t22.5 0.5h16q3 -2 6.5 -2.5t6.5 -2.5q4 -8 4.5 -12t-0.5 -15q-52 1 -81 -11.5t-39 -52.5v-14q-4 -17 5.5 -32.5t20.5 -21.5q4 -2 7.5 -2t8.5 -2q4 -1 11.5 -2t12.5 1q8 2 15.5 4.5t13.5 7.5q4 2 6.5 5.5t6.5 5.5v-10q-2 -2 -2 -10h48 q5 32 8 62.5t9 62.5q3 15 3 33.5t-8 29.5q-13 17 -39 25h-7q-5 2 -19.5 3t-20.5 -1q-4 -1 -8 -1t-8 -2l-30 -8q-2 -12 -3.5 -23.5t-3.5 -23.5zM637 433q-1 -8 -2 -16.5t-3 -17.5q0 -2 -1 -6t0 -6q2 -2 4.5 -1.5t5.5 -0.5q8 -4 29 -4h18q8 -2 19.5 -0.5t18.5 4.5q4 1 7 1t6 2 q23 11 31 34q2 6 1 11.5t1 11.5q1 3 1.5 9t-1.5 11q-8 32 -37 44l-10.5 3.5t-9.5 4.5q-2 2 -3 4t-3 4q0 5 0.5 9t1.5 8q3 1 6.5 3t6.5 3h12q8 1 18.5 0t21.5 -1q2 11 3 23t3 24q-6 1 -13 1.5t-12 2.5q-7 2 -21.5 1t-19.5 -3h-8q-3 0 -6.5 -1t-7.5 -2q-31 -12 -41 -45v-8 q-2 -9 -1 -21.5t5 -19.5q7 -13 19 -20t24 -15q3 -2 6 -2.5t5 -2.5l8 -9q0 -4 -0.5 -7.5t-0.5 -6.5l-9 -8q-19 -6 -38 -0.5t-34 5.5zM1542 594q-1 -15 -3 -31.5t-6 -30.5l-2 -16q-2 -7 -3 -14.5t-3 -14.5q0 -4 -0.5 -8t-0.5 -8q-2 -7 -3 -14.5t-3 -14.5v-9q-2 -7 -2.5 -14.5 t-2.5 -15.5q-1 -4 -2 -9t-2 -12h56q1 6 2 13.5t3 12.5v8q3 11 4.5 22.5t4.5 21.5v7q3 11 4.5 21t5.5 18q4 11 10.5 21.5t21.5 4.5q1 5 2.5 9t2.5 8v5q2 6 4 13t5 14l3.5 7t2.5 8q-19 1 -27.5 -5t-16.5 -16l-3.5 -3.5t-2.5 -5.5h-1v4q2 3 2.5 11t0.5 13h-51zM1087 593 q-1 -10 -3 -22t-5 -21v-7.5t-1 -8.5q-3 -12 -4.5 -26t-5.5 -26v-8t-1 -8q-2 -8 -3.5 -18t-3.5 -18v-9q-2 -9 -4 -18.5t-2 -20.5h55q0 10 2.5 21.5t4.5 20.5q0 4 0.5 7.5t0.5 7.5q5 19 7 39t10 37l10 14h2l4 4h16q1 17 7.5 33.5t11.5 28.5h-18q-2 -2 -4 -2t-4 -1 q-6 -4 -14.5 -12.5t-10.5 -15.5h-1v6q2 2 3 10.5t1 12.5h-50zM942 514q1 13 8 23t18 13q7 2 13 0.5t11 -2.5l7 -8q3 -5 3.5 -12t0.5 -14h-61zM1715 545q2 0 6 -0.5t9 -1.5q11 -5 15 -23.5t-1 -35.5v-6q-3 -11 -8.5 -23t-14.5 -17h-3q-4 -2 -9.5 -4.5t-12.5 -0.5l-4 2t-5 2 q-3 5 -6.5 10t-5.5 13v13q-3 14 3 33t13 27q2 3 7.5 6t9.5 5q2 1 3.5 0.5t3.5 0.5zM577 477q1 -19 -7.5 -33.5t-22.5 -18.5h-16q-2 2 -3.5 2.5t-3.5 2.5l-6 8v11t2 9q5 15 22.5 17.5t34.5 1.5zM1451 477q0 -24 -12 -40q-2 -3 -6 -5t-6 -5l-16 -2q-3 0 -6.5 1.5t-5.5 1.5 q-6 10 -6.5 15t1.5 16q2 2 3.5 5.5t4.5 5.5q9 6 22 6.5t27 0.5zM1813 241v-1q-2 0 -1.5 0t-1.5 1h3z" />
<glyph unicode="&#x10b;" d="M1822 223q-8 -8 -30.5 -11t-49.5 -4t-54 0t-44 1v14l-44 -14h-385v71h-14v-71h-119v71q-20 -2 -36 -5t-40 -4v-57q-12 -5 -31 -6.5t-40.5 -1t-42.5 1.5t-36 1l-9 14h-5q-7 10 -9.5 16.5t-16.5 9.5v-9h-5l-26 -31h-240v271h244q8 -11 15.5 -20.5t15.5 -19.5q4 3 3 1.5 t2 2.5q9 5 18.5 14.5t12.5 21.5h190l40 -14v14h164l40 -14v14h221v-14h5q7 8 29 11.5t48.5 4t52.5 -0.5t43 -1v-14h4q8 8 28.5 11.5t45 4t49 -0.5t41.5 -1v-129h5v-9h4v-13h4q6 -17 2.5 -35t-11.5 -33t-19 -25.5t-20 -12.5zM1099 395q-2 6 -5 11.5t-6 10.5q-5 6 -13 10 t-16 7q-4 1 -9.5 1t-9.5 2h-159q-2 -1 -6 -7t-6 -8l-22 -21q-5 -6 -10 -12.5t-12 -11.5q0 -1 -1 -1q-2 5 -6.5 8.5t-9.5 9.5l-22 26q-3 5 -8 8.5t-7 8.5h-181v-187h178q2 1 7.5 8t7.5 10q11 9 20 20l10 12t11 11q1 0 1 1l55 -62h87v63q35 -1 66.5 0.5t51.5 16.5q8 7 10 16 t5 21q2 6 1.5 14t-2.5 14zM1284 425q-12 9 -29.5 10.5t-38.5 1.5h-94v-187h45v68q9 0 21.5 0.5t24.5 0t22 -2.5t13 -6q7 -9 7 -26.5v-33.5h45v28.5t-2.5 26.5t-8.5 20.5t-18 10.5v2q12 3 19.5 14t10 24.5t-1.5 27t-15 21.5zM1476 289h-72q-8 0 -17.5 -0.5t-15.5 1.5v36h102 v38h-69q-8 0 -17.5 -0.5t-15.5 1.5q0 8 -0.5 17.5t1.5 16.5h104v38h-149v-187h149v39zM1660 323q-8 32 -38 39l-25 2q-11 2 -22 0.5t-20 1.5q-5 2 -9.5 8.5t0.5 13.5q3 8 11 8.5t19 0.5h75v40q-14 0 -32.5 0.5t-37 0.5t-34.5 -2t-25 -7q-18 -12 -24 -37v-10q-1 -5 -0.5 -12 t2.5 -12q8 -20 23 -24t38 -10q7 -2 15.5 -1.5t16 0.5t13 -2.5t7.5 -9.5q2 -6 -1 -11t-6 -7q-5 -3 -13.5 -2.5t-16.5 0.5h-73v-41q18 0 40 -1t42.5 0t37.5 5t25 15q4 5 6 10.5t4 12.5q2 6 3 14.5t-1 16.5zM1832 331q-7 23 -36 31l-24 2q-14 1 -30.5 -0.5t-20.5 10.5 q-2 3 -2 8.5t2 7.5q5 6 13 6.5t19 0.5h73v40h-66q-42 0 -65 -10.5t-23 -52.5q0 -7 5 -20q6 -14 19.5 -19.5t30.5 -9.5q11 0 23 -0.5t23 -0.5q5 -2 7.5 -4t5.5 -4q4 -16 -5 -23q-5 -3 -14 -2.5t-17 0.5h-72v-41q19 0 39 -0.5t39 0t35 4t27 11.5q5 4 9 11.5t6 14.5q1 2 1 12 q2 6 1 14.5t-3 13.5zM1167 399q10 0 24 0.5t27 0t22.5 -4t11.5 -12.5q2 -10 -2.5 -16.5t-9.5 -8.5t-14.5 -2.5t-20.5 0t-21.5 1t-16.5 0.5v42zM967 398q6 0 17.5 0.5t23 0.5t21 -0.5t13.5 -2.5q8 -4 10 -15q4 -15 -4.5 -21.5t-22.5 -8.5t-30 -1t-28 1v47zM913 277 q-8 9 -16 17t-15 17q-5 6 -13.5 16.5t-14.5 14.5q1 5 8 11t10 10q15 18 31 34q4 4 10 9.5t8 10.5h1v-149h-1zM745 289h-110v37h98v38h-98v35h112q6 -9 14.5 -16.5t14.5 -15.5q5 -5 9.5 -11.5t10.5 -10.5q-2 -4 -5 -6t-5 -5q-8 -11 -16.5 -20t-17.5 -18zM1605 568v-35h-156 l-4 13q-6 5 -8.5 13.5t-4.5 17.5h-40q0 -2 -2.5 -9t-5.5 -14.5t-6 -13.5t-4 -7h-102v4h-22v5l-27 4l-4 -13h-191q-5 13 -4.5 33t0.5 38h-9v-67q-11 -4 -25.5 -5t-31 -1t-33 1t-30.5 1h-257v26h-4v-8q-5 -5 -6 -8t-3 -10h-80q-2 7 -4 13.5t-4 12.5h-5v-26h-151l-4 13 q-5 5 -8 14.5t-5 16.5h-40q0 -3 -2.5 -10t-5.5 -14.5t-6 -13t-4 -6.5h-137q5 12 9 24t8 25h5v13h4v9h5v9h4v8h5v14h4v9h4q2 5 2.5 8.5t2.5 8.5h4v14h5q1 5 2 8.5t2 8.5h5v14h4v9h4v8h5v9h4v14h5l2 8t2 9h5v14h4l9 26h120q2 -6 4 -10t4 -12h5v22h137q7 -15 15 -29t12 -33h9 q5 16 10.5 31t11.5 31h319q22 0 45.5 0.5t46 -0.5t42 -3.5t34.5 -9.5v13q9 0 27 0.5t37 0.5t35 -1t21 -4q4 -4 3 -3t1 -6l45 13h204q2 -9 4 -13t9 -9v4h-5v14q12 4 29 5t35 1t36 -1t33 -1l9 -18h5q1 5 1 10.5t3 7.5h124v-270h-124q-5 9 -11 16.5t-11 18.5h-4zM716 759h-74 q-2 -2 -2 -5t-2 -5l-10 -24q-7 -17 -13.5 -33t-14.5 -33q-2 -6 -5.5 -12t-5.5 -13h-2q-14 31 -28.5 62t-28.5 63h-73v-175h-2l-74 175h-67q-2 -1 -2.5 -5t-1.5 -6q-5 -8 -8 -16.5t-7 -17.5q-11 -24 -21.5 -49t-21.5 -49q-4 -8 -8.5 -22t-9.5 -20v-1h48q5 10 9 20t8 21h94 l4 -10q3 -8 6.5 -15.5t6.5 -15.5h91v144h2l63 -144h40q2 9 7 18.5t9 17.5q8 17 15 33t15 34q4 8 6.5 14.5t5.5 14.5q2 3 2.5 6t2.5 6v1h1v-145h46v186zM899 611h-72q-8 0 -17.5 -0.5t-15.5 1.5q0 8 -0.5 18.5t1.5 18.5h101v38h-102v34h105v39q-38 0 -76 -0.5t-73 -0.5v-186 h149v38zM1094 745q-9 9 -20 11q-11 4 -25 4h-28h-91v-187h45v67q9 0 21.5 0.5t25 0.5t22.5 -2t13 -8q6 -9 6 -26.5t-1 -31.5h46q0 17 0.5 36.5t-5.5 30.5q-4 8 -10.5 11t-12.5 8q1 2 5.5 4t6.5 4q12 12 17 29t-1 30t-14 19zM1136 760v-187h46v128q0 11 1 30.5t-2 28.5h-45z M1711 573v187h-45v-129h-2q-3 10 -9.5 18.5t-11.5 16.5q-8 11 -13.5 22.5t-13.5 23.5q-7 11 -15 23t-14 25h-68v-176h-2q-3 14 -11 30t-14 30l-49 116h-67q-2 -1 -2 -4.5t-2 -5.5l-12 -29q-15 -38 -31 -71q-4 -9 -9 -18.5t-7 -19.5q-14 0 -27 0.5t-21 5.5t-12 16.5t-4.5 25 t2.5 26t8 20.5q4 6 12.5 9t20 4t23.5 0.5t24 -0.5v41q-24 0 -43.5 -0.5t-35.5 -4.5t-27.5 -12.5t-19.5 -24.5q-4 -8 -5.5 -16.5t-3.5 -17.5v-14q-2 -6 -1 -13.5t2 -13.5q2 -21 12 -37q11 -21 39 -29q4 -1 9.5 -2t12.5 -2h67l8 20t8 21h94q4 -11 8 -21t9 -20h91v139h1 q2 -9 10.5 -20.5t13.5 -19.5q9 -14 17.5 -28.5t16.5 -28.5q7 -11 13.5 -21t12.5 -21h63zM1408 727q4 -4 5.5 -10t3.5 -11l16 -38q2 -4 3 -7.5t3 -6.5v-1h-61q8 19 15 37t15 37zM1049 681q-5 -2 -11.5 -2h-13.5h-49v42q9 0 23 0.5t26.5 0t22.5 -3.5t12 -10q2 -3 1.5 -7 t-0.5 -8q-3 -3 -4.5 -6.5t-6.5 -5.5zM335 702q2 6 5 12t5 13h2q5 -13 9.5 -25t9.5 -24q2 -6 5.5 -12t4.5 -13h-61z" />
<glyph unicode="&#x10c;" d="M260 755h61.5t60.5 -1q17 0 35.5 1t32.5 -3q40 -11 60 -42q10 -17 10.5 -45.5t-6.5 -49.5q-12 -36 -34.5 -58t-58.5 -34q-12 -4 -24.5 -4.5t-25.5 -4.5q-18 -5 -40.5 -2t-41.5 1q-11 -17 -15.5 -39t-10.5 -42q-2 -8 -3 -16.5t-6 -13.5q-1 -1 -3 -1.5t-3 -2.5 q-19 0 -37.5 -1t-35.5 2q-1 2 -2 3l-2 2q-1 13 2.5 25t6.5 23q4 14 6 27t6 26q11 42 17.5 83.5t20.5 81.5q5 14 7 28.5t7 28.5q2 6 2.5 11.5t3.5 10.5q2 2 5 3t5 3zM1184 755q32 0 62.5 -0.5t61.5 -0.5q17 0 36 1t33 -4q23 -8 37.5 -20t23.5 -32q5 -11 8 -27t-1 -31 q-2 -11 -4 -21.5t-7 -19.5q-14 -32 -38 -50t-58 -29q-11 -4 -22.5 -4.5t-22.5 -2.5q-10 -2 -21 -1.5t-22 1.5t-21 1t-18 -3q-6 -11 -8.5 -25t-7.5 -28q-8 -26 -15 -55q-12 -8 -36 -7t-43 1q-4 4 -6 8q-2 5 -0.5 10.5t3.5 8.5q2 9 4 18.5t4 17.5q2 6 2 11t2 10q15 48 24 98.5 t23 99.5q3 11 5 22t5 22q2 6 2.5 12t3.5 11q2 3 5.5 4.5t5.5 3.5zM1848 752q4 0 10 0.5t9 -1.5q4 -2 5.5 -4t3.5 -5q0 -8 -2 -15.5t-4 -14.5q-4 -14 -6.5 -27t-6.5 -25q-3 -11 -4 -20.5t-4 -20.5q-10 -33 -17 -68t-17 -68q-5 -15 -7 -30t-7 -30q-2 -5 -2 -12t-5 -11 q-3 -2 -9.5 -2h-11.5h-27t-26 2q-3 7 -2 15t3 16q4 14 4.5 26.5t4.5 25.5q14 46 21 94t22 93q5 14 7.5 28.5t6.5 28.5q2 5 2 9.5t2 8.5q2 2 4.5 3.5t4.5 3.5h48zM340 690l-8 -2l-7 -7q-2 -2 -2 -5t-1 -6q-3 -10 -5.5 -20.5t-5.5 -21.5q-3 -9 -4.5 -19.5t0.5 -21.5 q8 -5 24 -6t29 2q23 6 37 11t24 24q2 5 5 13t1 16q-7 29 -29 36.5t-58 6.5zM1259 688q-10 -2 -11.5 -9.5l-3.5 -17.5q-5 -14 -11 -36t-2 -39q11 -7 32 -5q28 3 49 8.5t32 25.5q2 5 5.5 12.5t1.5 15.5q-8 33 -28.5 40.5t-59.5 6.5zM657 674q46 1 80 -12.5t44 -48.5 q4 -14 1.5 -29t-5.5 -25q-8 -26 -11.5 -52.5t-10.5 -51.5q-2 -5 -3 -13t-2.5 -16t-3.5 -15t-6 -9q-3 -2 -12.5 -3.5t-21 -2t-22 0t-16.5 1.5q0 1 -0.5 1.5t-0.5 1.5q-2 4 0 11.5t0 10.5q-1 2 -0.5 1.5t-1.5 0.5q-3 -3 -6.5 -4t-7.5 -3q-14 -8 -26.5 -15t-29.5 -11 q-5 -2 -13.5 -2t-12.5 1q-9 2 -16 1.5t-15 1.5q-22 7 -30 17.5t-15 34.5q-2 7 -2 17t2 16q5 21 13.5 34t21.5 21.5t29 14t36 10.5h15.5t15.5 1q16 3 35 1.5t34 1.5q2 3 3.5 6t2.5 8q3 10 0 19t-9 13q-8 5 -18 4t-21 1q-15 2 -34 -0.5t-33 -7.5q-8 -3 -13.5 -4.5t-13.5 -1.5 q-2 2 -2.5 2t-1.5 2q-4 5 -2.5 15t3.5 15q2 7 2 12.5t3 10.5q3 4 11 6.5t17.5 3.5l19 2t16.5 3q6 2 17.5 0.5t16.5 1.5zM845 673q13 0 27.5 0.5t22.5 -5.5t8.5 -20t2.5 -26q6 -29 10.5 -58.5t9.5 -58.5l8 -3q17 31 36.5 60.5t37.5 58.5l23 37q2 3 3.5 6t4.5 5q2 2 5.5 2 t8.5 1q13 2 34.5 1.5t33.5 -2.5q0 -2 0.5 -2t0.5 -2q1 -1 1 -6q-5 -5 -8 -13t-8 -15l-44 -73q-33 -54 -64.5 -106t-65.5 -106l-32 -50q-3 -5 -6.5 -11t-9.5 -9q-6 -2 -22.5 -1t-24.5 1h-17t-15 2q-1 2 -1 5.5v6.5q3 3 4.5 6.5t3.5 7.5q8 12 14.5 23.5t15.5 24.5q5 7 11 14.5 t8 15.5q1 2 0 9.5t-2.5 16t-3.5 16.5t-3 11q-2 8 -2.5 15t-2.5 15q-6 22 -9 45.5t-9 46.5q-6 21 -8 43t-7 42q-2 8 -0.5 16t7.5 10q4 3 11.5 1.5t11.5 1.5zM1589 425q-6 -1 -11 -4.5t-10 -5.5q-8 -5 -21.5 -12t-23.5 -10q-8 -2 -18.5 -3t-17.5 1h-10t-10 1q-21 5 -34 16.5 t-18 33.5q-3 12 -1 25.5t5 22.5q11 34 35 47.5t61 21.5h17.5t16.5 1q16 1 34 1t32 2q4 6 6 12q3 9 0.5 19t-8.5 14q-7 4 -21 5.5t-29.5 0.5t-30 -2.5t-23.5 -3.5q-5 -1 -14.5 -5.5t-14.5 -2.5q-5 1 -6 8.5t-0.5 17t2.5 18t4 11.5q7 11 24 11.5t32 3.5q11 2 22 2.5t24 0.5 q38 0 66 -8t44 -30q11 -14 11.5 -35.5t-4.5 -41.5q-10 -38 -17 -76.5t-16 -75.5l-9 -7q-3 -3 -12.5 -3.5t-20 -0.5t-20.5 1t-15 2q-1 3 -1 17q2 2 1 10zM625 520q-9 -2 -19 -5t-18 -8.5t-12 -14.5t-1 -22q2 -5 2.5 -8t2.5 -6q7 -10 27 -12t35 3q19 6 32.5 26.5t8.5 46.5 q-8 4 -21 3zM1583 523q-5 -3 -17 -2t-18 -1q-10 -2 -20.5 -5.5t-18.5 -9.5t-11 -15.5t2 -22.5q2 -4 2.5 -7t3.5 -6q6 -8 24 -10t32 2q21 5 29.5 17t14.5 33q4 12 1 25q-1 1 -2 1l-1 1h-21z" />
<glyph unicode="&#x10d;" d="M990 1369q67 1 123.5 -6.5t105.5 -22t92.5 -35t84.5 -45.5q48 -29 90 -64.5t74 -80.5q6 -8 13 -14.5t12 -14.5q16 -22 29.5 -44.5t27.5 -45.5q9 -15 14 -31.5t13 -33.5q14 -32 22.5 -66.5t18.5 -72.5q4 -13 4 -26.5t3 -25.5v-21q1 -7 2 -19.5t1 -25.5t-0.5 -25.5 t-2.5 -19.5v-23q-4 -14 -4 -29.5t-5 -29.5q-10 -38 -19 -74t-23 -70q-64 -146 -170 -240t-259 -152q-29 -11 -60 -15t-63 -12q-14 -4 -30.5 -2.5t-30.5 -3.5q-6 -2 -18.5 -1.5t-26.5 1t-26 2t-16 2.5h-17l-73 12q-24 7 -48.5 12t-45.5 15l-45 21q-123 57 -211.5 146 t-143.5 215q-11 24 -16.5 48t-13.5 50q-23 69 -23 153q0 16 -0.5 34t2.5 31v21q2 9 2 20t3 22q9 35 15.5 70t20.5 67q60 140 154 239.5t233 159.5q35 15 73 23.5t78 19.5q13 4 27 3.5t27 3.5q6 2 13.5 0t12.5 1zM988 1320q-4 -3 -11 -1.5t-13 -0.5q-12 -3 -25 -3t-26 -4 q-36 -10 -70 -17.5t-66 -21.5q-132 -57 -218.5 -149.5t-142.5 -225.5q-13 -30 -18 -63t-14 -67q-3 -12 -1.5 -23.5t-1.5 -24.5t-2.5 -30t0.5 -31q0 -79 20 -145q2 -8 2.5 -13.5t2.5 -12.5q6 -17 12 -35t14 -35q105 -231 336 -334q26 -12 54.5 -21.5t58.5 -18.5l72 -12h17 q14 -3 31.5 -3h34.5h22q16 4 33.5 3t33.5 4q33 10 65 15t61 17q130 54 222 138.5t147 211.5q14 33 23 68.5t20 73.5q3 12 3.5 25t2.5 24v21q2 7 2.5 22.5t0.5 32.5t-1 32.5t-2 23.5l-12 75q-8 29 -17 57t-20 54q-10 22 -18 42t-21 40q-54 85 -126.5 151t-169.5 108 q-32 14 -66.5 23t-71.5 20l-32 3q-27 7 -59.5 7h-65.5zM1125 1084q47 1 85 -5t70 -17.5t59.5 -27.5t53.5 -35l47 -50q5 -6 9 -13.5t10 -13.5q-1 -2 -0.5 -1.5t-1.5 -1.5q-3 -4 -7.5 -6t-9.5 -4q-8 -6 -16 -12.5t-16 -11.5q-8 -2 -7 -2q-11 -8 -23 -18t-26 -14v1q-5 4 -7.5 9 t-6.5 10l-15 14l-9 9t-8 9q-16 11 -32 20.5t-33 17.5l-45 12q-22 6 -52 2.5t-48 -9.5q-9 -3 -16 -3.5t-15 -4.5q-51 -21 -84.5 -59.5t-52.5 -92.5q-6 -17 -7.5 -36.5t-0.5 -39t5 -38t10 -33.5q3 -8 5 -15.5t7 -15.5l9 -10q1 -4 0 -5q-7 -9 -19 -14t-21 -12l-27 -20l-17 -9 q-5 -3 -9.5 -7t-10.5 -6v1q-14 14 -23.5 40t-17.5 47q-5 14 -8.5 30t-7.5 32q-3 13 -3.5 30t0.5 34.5t4 33t6 25.5q5 14 6.5 26.5t7.5 26.5q23 60 61.5 104.5t90.5 77.5q22 14 46.5 23.5t50.5 17.5zM1219 763q5 -2 10 -10t9.5 -18t8 -19.5t6.5 -15.5q15 -36 21 -78 t3.5 -83.5t-13.5 -80.5t-30 -70q-35 -58 -83.5 -100t-117.5 -67q-8 -3 -15.5 -4t-15.5 -3q-13 -4 -31.5 -7t-39 -4.5t-41 -0.5t-35.5 5q-21 5 -42 10.5t-40 13.5q-33 14 -61 34t-52 44l-18 18q-9 9 -15 20t-14 19v3q11 5 20.5 13t20.5 15q8 5 16 9t16 9t15.5 12t18.5 9 q14 -29 45 -53t70.5 -37.5t84 -14t85.5 17.5q48 21 82 58.5t53 88.5l3 20q6 21 7.5 51t-5.5 53q-6 22 -15 39.5t-17 35.5q6 2 10.5 6.5t9.5 7.5q-1 0 7 2q8 5 16 11.5t16 11.5q11 7 25 14t22 15zM932 -158q5 -1 16.5 -0.5t19.5 -1.5q49 -16 66 -56q5 -12 6.5 -28t-2.5 -28 q-3 -9 -3.5 -15.5t-3.5 -13.5q-11 -26 -31.5 -43t-47.5 -27q-11 -5 -27 -8.5t-31 1.5q-18 5 -30 11.5t-20.5 15.5t-14 21t-10.5 30q-2 10 -1.5 24.5t3.5 23.5q5 14 13 27t16 24t23.5 21t29.5 15q7 2 14 3.5t15 3.5zM1372 -158q37 1 61 -12.5t36 -37.5q5 -8 5.5 -17t3.5 -20 q2 -11 0.5 -25t-5.5 -23q-21 -51 -70 -73q-13 -6 -31.5 -11.5t-38.5 -0.5q-59 15 -75 70v10q-2 10 -1.5 22.5t3.5 21.5q10 28 29 53q8 10 24 20.5t28 15.5q8 2 15.5 3.5t15.5 3.5zM684 -160q29 1 53 -2.5t41 -14.5q5 -2 8 -6.5t8 -7.5v-3q-8 -5 -15.5 -10t-17.5 -7 q-6 9 -24 14t-38 5t-36.5 -5t-20.5 -17q-7 -7 -2 -18t18.5 -10.5t27.5 -2.5q13 -3 25 -4.5t22.5 -3.5t19 -6.5t15.5 -14.5q5 -6 11.5 -15t2.5 -23q-8 -28 -25 -43t-44 -23q-20 -6 -43.5 -3.5t-44 10.5t-36 20t-19.5 24q10 2 16.5 8.5t17.5 8.5q6 -9 19 -17.5t29 -13.5 t33.5 -5.5t33.5 5.5q7 3 10 8.5t8 10.5q1 8 1 12.5t-2 11.5q-12 6 -28.5 8.5t-33 4t-32.5 4.5t-26 10q-11 8 -17 26t2 36q6 14 20 24.5t28 16.5q6 2 18 3t17 5zM1113 -334h118q0 -8 -2 -19.5t-7 -16.5q-6 -4 -21 -2.5t-23 1.5h-118q0 15 4 29t8 27q6 21 10 41.5t9 41.5 q1 5 2 14.5t2.5 19t3.5 17.5t5 11q6 4 21 3t24 -1zM928 -197q-4 -3 -8.5 -3.5t-9.5 -2.5q-10 -4 -21 -12.5t-17 -16.5q-11 -15 -13.5 -31.5t1.5 -32t15 -27.5t28 -16q17 -5 32.5 -0.5t28 14t21.5 22t13 24.5q3 9 3 23.5t-4 22.5q-15 36 -69 36zM1367 -197q-4 -3 -9 -3.5 t-10 -2.5q-10 -4 -20.5 -12.5t-16.5 -16.5q-11 -14 -14 -31t1 -32.5t15 -27.5t28 -16q16 -5 32 -0.5t29 14t22 21.5t13 23q3 9 2.5 24.5t-4.5 23.5q-15 36 -68 36z" />
<glyph unicode="&#x10e;" d="M823 659q23 0 39 -2t31 -8q2 -2 8 -3.5t7 -3.5v-62h-1q-5 7 -15 14t-22 11.5t-25.5 5.5t-26.5 -3q-24 -8 -38 -22.5t-23 -38.5q-2 -7 -5 -20t0 -25q8 -31 22.5 -48.5t43.5 -26.5q9 -3 23 -4t25 3q17 6 31 16q3 3 4.5 6t6.5 5v-62q-10 -5 -19.5 -8.5t-19.5 -5.5 q-14 -4 -32.5 -2.5t-29.5 4.5q-7 2 -12 3l-10 2q-52 24 -77 79q-8 17 -11 44t5 49q11 31 30 56t49 35l27 9q4 2 8 1.5t7 1.5zM1067 659q54 1 87.5 -23.5t50.5 -62.5q11 -24 12.5 -54t-9.5 -56q-26 -60 -91 -83q-10 -3 -21 -3.5t-22 -2.5q-1 1 -7 1q-17 1 -29 4t-24 8 q-35 15 -53 37t-29 60q-3 11 -5 29.5t2 31.5l8 25q9 28 31.5 48t49.5 31q8 3 17 5t17 4q4 1 8.5 0t6.5 1zM578 658q65 2 93 -31q-6 -6 -13.5 -19t-15.5 -16q-7 11 -26 18t-37 -1q-7 -2 -10 -7.5t-8 -10.5v-16q4 -3 6.5 -7.5t7.5 -7.5q8 -5 16 -7t17 -6q25 -8 44 -24 q3 -2 6.5 -3.5t5.5 -3.5q4 -5 8 -11.5t6 -12.5v-6.5t1 -6.5q2 -7 2 -18t-2 -19t-5 -16t-8 -14q-6 -10 -18 -19t-27.5 -14t-33 -6t-35.5 5q-25 8 -40 25q-5 5 -11 10.5t-8 13.5q8 6 16.5 17.5t17.5 14.5v-1q2 -2 2.5 -4.5t2.5 -4.5q7 -8 15 -14.5t19 -9.5q13 -4 25.5 -1 t21.5 10t12.5 18t-2.5 23q-7 14 -20.5 18t-27.5 10q-16 6 -33 14.5t-26 22.5q-3 5 -5 10.5t-4 10.5v12q-2 5 -1.5 13.5t2.5 14.5q4 12 17 30q5 6 16 13t19 10q5 2 9.5 1.5t8.5 2.5zM170 654q18 0 43.5 1t40.5 -2l26 -2q38 -10 63 -27.5t40 -50.5q8 -17 11.5 -43t-4.5 -48 q-5 -13 -9.5 -24.5t-11.5 -21.5q-14 -20 -36 -32.5t-50 -20.5q-6 0 -12 -0.5t-12 -0.5q-6 -2 -15 -2h-17h-57v274zM419 654h54v-274h-54v274zM1265 654q12 -29 23 -59.5t24 -59.5q6 -15 13.5 -31t11.5 -32h1v1l74 181h56q0 -7 -3.5 -13t-6.5 -11q-5 -13 -10 -25t-10 -23 t-8 -21.5t-8 -21.5q-12 -27 -24.5 -55t-23.5 -55q-5 -11 -9.5 -20.5t-7.5 -19.5q-2 -4 -2.5 -7.5t-2.5 -7.5h-30q-1 7 -4.5 13t-5.5 11t-2.5 8.5t-2.5 8.5t-5.5 10t-5.5 10t-2.5 8t-2.5 8l-46 109l-6 17q-4 10 -9 20t-10 21q-1 3 -0.5 5.5t-1.5 4.5q-2 6 -5.5 12t-4.5 14h57 zM1493 654h150v-47h-97v-60q5 -2 13.5 -1.5t16.5 0.5h63v-45h-92q-2 -5 -2.5 -14.5t0 -20.5t1 -21.5t0.5 -17.5h97v-47h-150v274zM1679 654q21 0 45 0.5t45.5 -2t39 -8t26.5 -17.5q5 -5 8.5 -11.5t7.5 -14.5q2 -7 3 -17t-1 -16q0 -5 -0.5 -9.5t-0.5 -9.5q-14 -44 -60 -53v-2 h2q4 -9 11 -16t13 -15q9 -14 18 -26.5t18 -25.5q5 -8 12.5 -15t10.5 -16h-66q-2 8 -7.5 14.5t-9.5 12.5l-23 37q-4 5 -8.5 10.5t-8.5 10.5q-4 6 -8.5 15.5t-13.5 10.5v-111h-53v274zM1733 611q-2 -5 -1.5 -12.5t0.5 -14.5v-55q3 -2 7 -2h9q4 2 10 1.5t10 1.5q18 4 26 16 q1 7 5 14q3 16 -1.5 26.5t-14.5 15.5t-23 7t-27 2zM223 427q48 0 72 12t38 46q5 11 7 26.5t-3 29.5l-6 16t-8 15q-14 20 -38.5 27.5t-61.5 7.5v-180z" />
<glyph unicode="&#x10f;" d="M650 1025q97 2 168.5 -19.5t129.5 -58.5l30 -19q6 -4 11 -8.5t10 -9.5q5 -3 11.5 -7.5t9.5 -9.5q7 4 12 9.5t11 10.5q11 8 22.5 16.5t22.5 15.5q32 20 66 34.5t73 27.5q6 2 12 2.5t13 2.5q26 8 59 11t66.5 2t65.5 -6t56 -13q5 -1 9 -2t9 -2q16 -5 31 -11t29 -12 q17 -8 32 -17t29 -18q132 -84 196 -232q9 -20 14.5 -40.5t12.5 -42.5q2 -7 2.5 -13.5t2.5 -12.5q3 -11 3 -23.5t3 -24.5q1 -2 0.5 -6t0.5 -6v-17q0 -9 0.5 -20t-1.5 -19v-13q-2 -8 -2 -18t-2 -19q-2 -7 -2.5 -14t-2.5 -14q-5 -17 -9.5 -34t-10.5 -32l-2 -8l-16 -35 q-3 -6 -4.5 -11.5t-4.5 -10.5q-11 -16 -20 -32t-20 -31l-25 -33l-7 -6q-14 -20 -33 -33q-4 -3 -7.5 -7.5t-7.5 -7.5q-13 -10 -25 -19t-26 -18t-29.5 -19t-32.5 -18q-15 -7 -30.5 -13.5t-32.5 -11.5q-11 -4 -23.5 -6.5t-23.5 -6.5q-6 -2 -11.5 -1.5t-11.5 -1.5 q-16 -4 -33.5 -5t-37.5 -1h-68q-5 2 -11.5 1.5t-12.5 1.5q-14 4 -28.5 5.5t-28.5 6.5q-17 6 -33.5 11t-31.5 12q-20 8 -38.5 18.5t-36.5 21.5l-25 15l-24 20q-5 5 -11 8.5t-9 8.5l-1 -1q-8 -5 -16.5 -13t-16.5 -14q-11 -8 -23 -17t-26 -17q-5 -3 -10.5 -5t-10.5 -5 t-10.5 -6.5t-10.5 -5.5q-24 -11 -49 -18.5t-52 -16.5q-15 -5 -31.5 -6t-32.5 -5h-65q-54 0 -96.5 9t-80.5 26q-11 5 -21 9t-19 9q-2 2 -4.5 2t-4.5 1l-61 38q-5 4 -10 8.5t-10 8.5q-29 22 -54 49t-45 56q-12 17 -23.5 35t-19.5 38q-6 14 -12 27.5t-11 27.5q-2 5 -2.5 10 t-2.5 10q-5 16 -8 33.5t-8 35.5q-2 7 -1.5 14.5t-1.5 14.5v11q-2 4 -3 14t-1 21t1 20.5t3 14.5v10q2 8 1.5 15t1.5 15q2 9 3 18.5t4 18.5q4 13 7 26.5t8 25.5q2 3 2 6t2 6q8 20 16.5 40t19.5 37q45 73 104.5 128t140.5 90q20 9 40.5 14.5t41.5 11.5q8 2 15.5 3t14.5 3 q10 3 20.5 3t19.5 2q5 2 10 1t8 1zM387 647q0 -5 -1.5 -10.5t-2.5 -10.5q-3 -9 -4 -18t-3 -18q-2 -7 -2 -13.5t-2 -13.5q-5 -16 -7 -33t-7 -34q-2 -6 -2 -11.5t-2 -11.5l-4 -22t-5 -22q0 -2 -0.5 -5t-0.5 -5q-5 -14 -6 -31h57q1 5 2 9.5t3 9.5q0 9 1 10q2 8 3.5 17.5 t3.5 17.5l2 14q5 14 6.5 30.5t6.5 31.5q3 10 4 20t4 19q1 4 0.5 8t1.5 6v-1q2 -2 1 -6.5t0 -8.5q1 -5 1.5 -11t0.5 -11v-10q1 -5 1 -11v-11v-10q2 -5 2 -11v-11v-10q1 -3 0.5 -7.5t0.5 -7.5q4 -15 2.5 -33t1.5 -33h58q14 34 29 68t30 67l20 44q2 5 3 9t4 8q-9 -51 -18.5 -99 t-18.5 -97h63v1h1q0 9 3 20t5 19q0 2 0.5 4.5t0.5 4.5q3 11 5 22l4 22q1 1 1 9q3 10 4.5 20t4.5 20q0 8 1 9q7 26 11.5 53.5t9.5 54.5h-104l-69 -158h-1v10q-1 2 -0.5 6.5t-0.5 7.5v30l-3 103h-1v1h-99zM1266 647q-1 -10 -3.5 -22t-4.5 -22q0 -2 -0.5 -4.5t-0.5 -4.5 q-3 -11 -4.5 -23t-4.5 -23q-2 -5 -1.5 -8t-0.5 -7q-2 -8 -3.5 -16t-3.5 -16q-2 -4 -1 -7t-1 -7q-4 -13 -5.5 -24t-2.5 -22q-5 -42 24 -53q5 -2 9.5 -2t9.5 -2q5 -1 12 -1t12 2q7 2 15 2t13 4q2 3 1.5 6.5t0.5 7.5l4 16t2 16h-2q-3 -2 -8 -2t-10.5 0.5t-10 2.5t-5.5 4 q-3 4 -2.5 14t2.5 15q3 10 4 20t4 21q2 8 4 17t3 18h32l1 1l9 50h-33v2q2 2 1.5 4.5t0.5 4.5q2 7 3 14t3 14q0 1 0.5 2t0.5 3v4q-2 2 -8 1.5t-9 -0.5h-46zM1568 600q-9 -3 -18.5 -7t-17.5 -9q-2 -2 -4.5 -5t-5.5 -5q-2 -2 -4.5 -3.5t-4.5 -4.5q-9 -12 -16 -24.5t-12 -29.5 q-7 -24 -1.5 -52t15.5 -42q15 -21 46 -31q6 -2 12 -2.5t11 -1.5h13q27 0 47 6q28 10 44.5 24t27.5 40q2 5 2.5 10t2.5 11q4 11 4 36v11q-2 8 -3 15t-4 13q-11 24 -28.5 35.5t-44.5 18.5q-8 2 -18 1.5t-19 -0.5zM751 603q-4 -2 -10 -1t-10 0q-11 -3 -23 -5.5t-23 -4.5 q-2 -6 -2 -12t-2 -13q-2 -5 -2.5 -11t-1.5 -12h1q3 3 9.5 3.5t11.5 1.5q6 1 16 2.5t21 2t21 0t16 -2.5q4 -2 6 -4.5t5 -4.5v-11t-2 -10h-1q-2 2 -4.5 1t-4.5 0q-11 2 -25 1t-22 -3q-5 -2 -10 -1.5t-10 -1.5q-19 -7 -32.5 -17t-21.5 -28q-6 -14 -6 -31v-10q9 -33 38 -44 q3 -2 6 -1.5t7 -0.5q12 -1 25 0q3 1 7.5 1.5t8.5 2.5q10 3 22 11l10 9v-6q-1 -2 -1 -7v-7q3 -2 7.5 -1.5t9.5 0.5h36v1h1q-2 13 3 24v5q2 6 2.5 12.5t2.5 11.5l3 19q3 11 4.5 24t4.5 24q0 3 0.5 6.5t0.5 6.5q4 16 0.5 31.5t-10.5 24.5q-11 15 -33.5 20t-48.5 5zM1045 475v2 q3 4 3 11.5t2 12.5q6 24 0.5 43.5t-15.5 33.5l-6 5q-4 2 -7 5t-6 5q-12 6 -35.5 10t-40.5 -2q-43 -15 -65 -48q-5 -8 -9.5 -20t-7.5 -26t-3.5 -28.5t3.5 -27.5q4 -11 8 -20t10 -17q8 -9 21.5 -15.5t26.5 -10.5q6 -2 11 -1.5t11 -1.5q13 -3 33.5 -1t30.5 5q5 1 10 1t9 3 q2 3 1.5 7t1.5 9l8 36h-2q-5 -5 -12.5 -6t-14.5 -3q-9 -3 -22 -4t-26 0.5t-23.5 5t-14.5 9.5q-7 10 -6 28h126zM1057 439q-2 -13 -5 -24t-4 -25q7 0 15 -1t15 -3q8 0 14.5 -0.5t13.5 -0.5q7 -2 16.5 -1.5t15.5 2.5q4 0 7 0.5t7 0.5q11 3 21.5 6.5t19.5 9.5q7 5 12 14t7 18 q1 1 1 11q2 7 1.5 15.5t-2.5 14.5q-5 13 -15.5 22t-22.5 14q-7 3 -19 6.5t-14 11.5q-3 3 -2 7.5t2 7.5q4 4 10 6q12 4 32.5 2t33.5 -3l8 49q-7 1 -15 1t-15 2q-3 1 -7.5 0.5t-6.5 0.5q-7 2 -18 1t-16 -2t-8.5 -1.5t-7.5 -0.5q-18 -5 -29.5 -12.5t-20.5 -21.5 q-5 -8 -8.5 -21.5t0.5 -25.5q5 -17 17 -27.5t26 -16.5q7 -3 19 -7t14 -11q3 -4 1.5 -10.5t-3.5 -8.5t-4 -2t-4 -1q-4 -2 -12 -3t-17 -1t-17.5 0.5t-13.5 2.5t-10.5 3t-11.5 2zM1383 598q0 -8 -2 -16l-4 -16v-5q-2 -6 -3 -13.5t-3 -13.5t-2 -12t-2 -12q-5 -17 -6.5 -34.5 t-6.5 -34.5q-3 -10 -4 -19.5t-3 -18.5q-1 -2 -2 -8t0 -6q2 -2 7.5 -1.5t9.5 0.5h46q1 16 6 30q2 6 2 11.5t2 11.5q4 13 6.5 27t6.5 27q5 11 8.5 22.5t13.5 17.5q7 5 16 4l18 -2q2 9 6 16l10 29q2 2 4.5 7t0.5 7q-3 4 -11.5 5t-13.5 -1q-2 0 -4.5 -0.5t-4.5 -0.5 q-14 -5 -24 -15q-4 -3 -6.5 -8t-7.5 -8v5q2 3 3 12t2 13h-58zM925 518v1q2 3 2 6t2 6q3 11 17 19q8 5 23 5t21 -8q4 -5 4.5 -12.5t0.5 -16.5h-70zM1600 553q18 0 26.5 -6t12.5 -20q1 -1 1 -9q1 -11 0 -18q-1 -5 -0.5 -9t-1.5 -9q-4 -14 -10 -22.5t-16 -16.5q-5 -3 -12 -7 t-16 -2q-16 4 -23 17t-7 28.5t5 31t13 25.5q4 5 9 8.5t10 5.5q2 2 4.5 1.5t4.5 1.5zM774 482q1 -17 -7.5 -31t-20.5 -19q-9 -4 -20.5 -2.5t-16.5 8.5q-3 5 -2 13t3 13q8 14 26 16t38 2z" />
<glyph unicode="&#x110;" horiz-adv-x="0" />
<glyph unicode="&#x111;" horiz-adv-x="0" />
<glyph unicode="&#x112;" horiz-adv-x="0" />
<glyph unicode="&#x113;" horiz-adv-x="0" />
<glyph unicode="&#x114;" horiz-adv-x="0" />
<glyph unicode="&#x115;" horiz-adv-x="0" />
<glyph unicode="&#x116;" horiz-adv-x="0" />
<glyph unicode="&#x117;" horiz-adv-x="0" />
<glyph unicode="&#x118;" horiz-adv-x="0" />
<glyph unicode="&#x119;" horiz-adv-x="0" />
<glyph unicode="&#x11a;" horiz-adv-x="0" />
<glyph unicode="&#x11b;" horiz-adv-x="0" />
<glyph unicode="&#x11c;" horiz-adv-x="0" />
<glyph unicode="&#x11d;" horiz-adv-x="0" />
<glyph unicode="&#x11e;" d="M1621 -81v341h86q35 0 60 -25t25 -60v-171q0 -35 -25 -60t-60 -25h-86zM1621 345v342h86q36 0 60.5 -25.5t24.5 -60.5v-170q0 -35 -24.5 -60.5t-60.5 -25.5h-86zM1621 772v341h86q35 0 60 -25t25 -60v-171q0 -35 -25 -60t-60 -25h-86zM597 1369h939v-1706h-939v1706z M1065 899q-32 0 -59.5 -12t-48.5 -33t-33 -49t-12 -59q0 -8 1 -18t4 -21l37 -142q10 -38 39.5 -62.5t71.5 -24.5t72 24.5t40 62.5l36 142q2 9 3.5 18.5t1.5 20.5q0 31 -12 59t-32.5 49t-48.5 33t-60 12zM797 133h536h77l-28 199q-5 29 -27 49t-50 20h-479q-28 0 -50 -20 t-27 -49l-28 -199h76zM256 1156q0 44 17 83t46 68t67.5 45.5t82.5 16.5h43v-1706h-43q-44 0 -82.5 16.5t-67.5 45.5t-46 68t-17 83v1280z" />
<glyph unicode="&#x11f;" d="M1024 -423q-129 0 -249 33.5t-224.5 95t-190 147t-147 190t-95 224t-33.5 249.5q0 129 33.5 249t95 224.5t147 190t190 147t224.5 95t249 33.5t249 -33.5t224.5 -95t190 -147t147 -190t95 -224.5t33.5 -249t-33.5 -249t-95 -224.5t-147 -190.5t-190 -147t-224.5 -94.5 t-249 -33.5zM1024 1195q-94 0 -180.5 -24.5t-162 -68.5t-137.5 -106t-106 -137.5t-68.5 -162t-24.5 -180.5t24.5 -180.5t68.5 -162t106 -137.5t137.5 -106t162 -68.5t180.5 -24.5t180.5 24.5t162 68.5t137.5 106t106 137.5t68.5 162t24.5 180.5t-24.5 180.5t-68.5 162 t-106 137.5t-137.5 106t-162 68.5t-180.5 24.5zM1024 89q-89 0 -166.5 33.5t-135.5 91.5t-91.5 135.5t-33.5 166.5q0 88 33.5 166t91.5 136t135.5 91.5t166.5 33.5q88 0 166 -33.5t136 -91.5t91.5 -136t33.5 -166q0 -89 -33.5 -166.5t-91.5 -135.5t-136 -91.5t-166 -33.5z M1024 687q-35 0 -66.5 -13.5t-54.5 -37t-36.5 -54.5t-13.5 -66t13.5 -66.5t36.5 -54.5t54.5 -36.5t66.5 -13.5t66 13.5t54.5 36.5t37 54.5t13.5 66.5t-13.5 66t-37 54.5t-54.5 37t-66 13.5z" />
<glyph unicode="&#x120;" d="M384 -337q-44 0 -83 16.5t-68 45.5t-45.5 68t-16.5 83v811h1706v-811q0 -44 -16.5 -83t-45.5 -68t-68 -45.5t-83 -16.5h-1280zM768 516h-341v-256h341v256zM768 175h-341v-256h341v256zM1195 516h-342v-256h342v256zM1195 175h-342v-256h342v256zM1621 516h-341v-256h341 v256zM1621 175h-341v-256h341v256zM171 985q0 44 16.5 83t45.5 68t68 46t83 17h213v128q0 17 12.5 29.5t30.5 12.5t30.5 -12.5t12.5 -29.5v-128h682v128q0 17 12.5 29.5t30.5 12.5t30.5 -12.5t12.5 -29.5v-128h213q44 0 83 -17t68 -46t45.5 -68t16.5 -83v-213h-1706v213z M1408 857q27 0 50 10t40.5 27.5t27.5 41t10 49.5q0 42 -24 74.5t-61 45.5v-120q0 -17 -12.5 -29.5t-30.5 -12.5t-30.5 12.5t-12.5 29.5v120q-37 -13 -61 -45.5t-24 -74.5q0 -26 10 -49.5t27.5 -41t40.5 -27.5t50 -10zM640 857q27 0 50 10t40.5 27.5t27.5 41t10 49.5 q0 42 -24 74.5t-61 45.5v-120q0 -17 -12.5 -29.5t-30.5 -12.5t-30.5 12.5t-12.5 29.5v120q-37 -13 -61 -45.5t-24 -74.5q0 -26 10 -49.5t27.5 -41t40.5 -27.5t50 -10z" />
<glyph unicode="&#x121;" d="M1539 -337l168 1008l-253 -1008h-855h-5l-253 1008l168 -1008h-253q-20 284 -30.5 502.5t-14.5 382.5t-2.5 278.5t6.5 190.5q11 179 41 217q37 18 82.5 34t94 29.5t97 25t90.5 20.5l-108 -144l85 -86l-170 -85l682 -1195l-85 171l-512 1024l171 85l-86 86l78 155l33 6 l60 9q9 2 18 2.5t18 1.5q-26 -26 -40.5 -59.5t-14.5 -76.5q0 -58 13.5 -147.5t35.5 -195t49 -219.5t54 -221l102 467l-64 192l42 43h85l43 -43l-63 -192l102 -469q28 107 55.5 221t49.5 220t35.5 195.5t13.5 148.5q0 42 -14.5 76t-40.5 60q8 -1 16.5 -1.5t16.5 -2.5l60 -9 l33 -6l78 -155l-86 -86l171 -85l-512 -997l597 997l-170 85l85 86l-108 144q43 -9 91 -20.5t96 -25t93.5 -29.5t83.5 -34q28 -37 40 -217q5 -76 6.5 -190.5t-2 -278.5t-14 -382.5t-30.5 -502.5h-253zM1024 -209q-18 0 -30.5 -12.5t-12.5 -30.5t12.5 -30.5t30.5 -12.5 t30.5 12.5t12.5 30.5t-12.5 30.5t-30.5 12.5z" />
<glyph unicode="&#x122;" d="M1646 459q-11 -67 -44 -124.5t-82 -99.5t-111 -66t-132 -24q-78 0 -144.5 28.5t-117.5 79.5l87 86q34 -33 79 -52t96 -19q52 0 98 19.5t80 53.5t53.5 79.5t19.5 98.5q0 52 -19.5 98t-53.5 80t-80 53.5t-98 19.5q-54 0 -99.5 -20t-79.5 -55l-87 86q51 52 119.5 82 t146.5 30q71 0 134 -24.5t112 -68t81.5 -102.5t42.5 -127h315v-112h-316zM678 268q-44 0 -84 14.5t-72 40t-54.5 60.5t-32.5 76h-355v112h352q9 43 31.5 79.5t55.5 63t73.5 41.5t85.5 15q52 0 98 -19.5t80 -53.5t53.5 -80t19.5 -98q0 -53 -19.5 -98.5t-53.5 -79.5t-80 -53.5 t-98 -19.5z" />
<glyph unicode="&#x123;" d="M1792 331q-35 0 -66 12t-55.5 33t-41 50t-21.5 62h-400q-6 -33 -22.5 -62t-41 -50t-55.5 -33t-65 -12q-35 0 -66 12t-55.5 33t-41 50t-21.5 62h-172v-171q33 -6 61 -22.5t48.5 -41t32 -55t11.5 -64.5q0 -39 -14.5 -73t-40 -59.5t-59.5 -40t-73 -14.5t-72.5 14.5t-59 40 t-40 59.5t-14.5 73q0 36 12.5 67.5t35 56.5t52 41t64.5 20v169h-178q-5 -33 -21.5 -62t-41 -50t-56 -33t-65.5 -12q-39 0 -72.5 14.5t-59 40t-40 59.5t-14.5 73t14.5 72.5t40 59t59 40t72.5 14.5q35 0 66.5 -12t56.5 -33.5t41 -51t21 -63.5h404q5 34 21 63.5t41 51 t56.5 33.5t66.5 12t66.5 -12t56 -33.5t40.5 -51t21 -63.5h172v174q-34 5 -63 21t-50.5 40.5t-33.5 56t-12 66.5q0 39 14.5 72.5t40 59t59.5 40t73 14.5t72.5 -14.5t59 -40t40 -59t14.5 -72.5q0 -35 -12 -66t-33 -56t-50 -41t-63 -21v-174h171q5 34 21 63.5t40.5 51t56 33.5 t67.5 12q39 0 72.5 -14.5t59 -40t40 -59t14.5 -72.5t-14.5 -73t-40 -59.5t-59 -40t-72.5 -14.5zM509 134q0 -26 10 -48.5t27 -39.5t39.5 -27t48.5 -10t49 10t40 27t27 39.5t10 48.5q0 25 -10 48t-27 40t-40 27t-49 10t-48.5 -10t-39.5 -27t-27 -40t-10 -48zM250 643 q-26 0 -48.5 -10t-39.5 -27t-27 -40t-10 -48q0 -26 10 -48.5t27 -39.5t39.5 -27t48.5 -10t49 10t40 27t27 39.5t10 48.5q0 25 -10 48t-27 40t-40 27t-49 10zM1024 643q-26 0 -49 -10t-40 -27t-27 -40t-10 -48q0 -26 10 -48.5t27 -39.5t40 -27t49 -10q25 0 48 10t40 27 t27 39.5t10 48.5q0 25 -10 48t-27 40t-40 27t-48 10zM1533 902q0 25 -10 48t-27 40t-40 27t-48 10q-26 0 -49 -10t-40 -27t-27 -40t-10 -48q0 -26 10 -48.5t27 -39.5t40 -27t49 -10q25 0 48 10t40 27t27 39.5t10 48.5zM1792 643q-26 0 -49 -10t-40 -27t-27 -40t-10 -48 q0 -26 10 -48.5t27 -39.5t40 -27t49 -10q25 0 48 10t40 27t27 39.5t10 48.5q0 25 -10 48t-27 40t-40 27t-48 10zM640 777q-26 0 -49 10t-40 27t-27 39.5t-10 48.5q0 25 10 48t27 40t40 27t49 10q25 0 48 -10t40 -27t27 -40t10 -48q0 -26 -10 -48.5t-27 -39.5t-40 -27 t-48 -10zM1408 259q25 0 48 -10t40 -27t27 -40t10 -48q0 -26 -10 -48.5t-27 -39.5t-40 -27t-48 -10q-26 0 -49 10t-40 27t-27 39.5t-10 48.5q0 25 10 48t27 40t40 27t49 10z" />
<glyph unicode="&#x124;" d="M1798 325q-35 0 -66.5 12.5t-56.5 34t-41.5 51t-20.5 64.5h-405q-9 -61 -52 -104t-104 -53v-402q34 -5 63 -21.5t50.5 -41t33.5 -56t12 -65.5q0 -39 -14.5 -73t-40 -59.5t-59.5 -40t-73 -14.5t-73 14.5t-59.5 40t-40 59.5t-14.5 73q0 34 12 65.5t33.5 56t50.5 41t62 21.5 v402q-60 10 -103 53t-52 104h-406q-6 -33 -22.5 -61.5t-41 -49.5t-55.5 -33t-65 -12q-39 0 -73 14.5t-59.5 40t-40 59.5t-14.5 73t14.5 72.5t40 59t59.5 40t73 14.5q35 0 66.5 -12.5t56.5 -34t41 -50.5t21 -63h405q10 60 52.5 102.5t102.5 52.5v405q-33 5 -62 21.5t-50.5 41 t-33.5 55.5t-12 66q0 39 14.5 73t40 59.5t59.5 40t73 14.5t73 -14.5t59.5 -40t40 -59.5t14.5 -73q0 -35 -12 -66t-33.5 -55.5t-50.5 -41t-63 -21.5v-405q61 -10 103.5 -52.5t52.5 -102.5h406q6 33 22.5 61t41 48.5t55 32.5t65.5 12q39 0 73 -14.5t59.5 -40t40 -59.5 t14.5 -73t-14.5 -72.5t-40 -59t-59.5 -40t-73 -14.5zM250 643q-26 0 -48.5 -10t-39.5 -27t-27 -40t-10 -48q0 -26 10 -49t27 -40t39.5 -27t48.5 -10q25 0 48 10t40 27t27 40t10 49q0 25 -10 48t-27 40t-40 27t-48 10zM899 -256q0 -26 10 -49t27 -40t39.5 -27t48.5 -10 q25 0 48 10t40 27t27 40t10 49q0 25 -10 48t-27 40t-40 27t-48 10q-26 0 -48.5 -10t-39.5 -27t-27 -40t-10 -48zM1149 1288q0 26 -10 49t-27 40t-40 27t-48 10q-26 0 -48.5 -10t-39.5 -27t-27 -40t-10 -49t10 -48.5t27 -39.5t39.5 -27t48.5 -10q25 0 48 10t40 27t27 39.5 t10 48.5zM1024 640q-26 0 -48.5 -10t-39.5 -27t-27 -40t-10 -49t10 -48.5t27 -39.5t39.5 -27t48.5 -10q25 0 48 10t40 27t27 39.5t10 48.5t-10 49t-27 40t-40 27t-48 10zM1798 637q-26 0 -48.5 -10t-39.5 -27t-27 -40t-10 -49t10 -48.5t27 -39.5t39.5 -27t48.5 -10 q25 0 48 10t40 27t27 39.5t10 48.5t-10 49t-27 40t-40 27t-48 10zM1411 718q-39 0 -73 14.5t-59.5 40t-40 59.5t-14.5 73t14.5 72.5t40 59t59.5 40t73 14.5t73 -14.5t59.5 -40t40 -59t14.5 -72.5t-14.5 -73t-40 -59.5t-59.5 -40t-73 -14.5zM1411 1030q-26 0 -48.5 -10 t-39.5 -27t-27 -40t-10 -48q0 -26 10 -49t27 -40t39.5 -27t48.5 -10q25 0 48 10t40 27t27 40t10 49q0 25 -10 48t-27 40t-40 27t-48 10zM637 718q-39 0 -73 14.5t-59.5 40t-40 59.5t-14.5 73t14.5 72.5t40 59t59.5 40t73 14.5t73 -14.5t59.5 -40t40 -59t14.5 -72.5 t-14.5 -73t-40 -59.5t-59.5 -40t-73 -14.5zM637 1030q-26 0 -48.5 -10t-39.5 -27t-27 -40t-10 -48q0 -26 10 -49t27 -40t39.5 -27t48.5 -10q25 0 48 10t40 27t27 40t10 49q0 25 -10 48t-27 40t-40 27t-48 10zM634 314q39 0 72.5 -14.5t59 -40t40 -59.5t14.5 -73t-14.5 -72.5 t-40 -59t-59 -40t-72.5 -14.5t-73 14.5t-59.5 40t-40 59t-14.5 72.5t14.5 73t40 59.5t59.5 40t73 14.5zM634 2q25 0 48 10t40 27t27 39.5t10 48.5t-10 49t-27 40t-40 27t-48 10q-26 0 -49 -10t-40 -27t-27 -40t-10 -49t10 -48.5t27 -39.5t40 -27t49 -10zM1408 314 q39 0 72.5 -14.5t59 -40t40 -59.5t14.5 -73t-14.5 -72.5t-40 -59t-59 -40t-72.5 -14.5t-73 14.5t-59.5 40t-40 59t-14.5 72.5t14.5 73t40 59.5t59.5 40t73 14.5zM1408 2q25 0 48 10t40 27t27 39.5t10 48.5t-10 49t-27 40t-40 27t-48 10q-26 0 -49 -10t-40 -27t-27 -40 t-10 -49t10 -48.5t27 -39.5t40 -27t49 -10z" />
<glyph unicode="&#x125;" d="M1760 390q-34 -126 -101 -231.5t-158 -185t-202 -130.5t-232 -69v-111h213v-86h-512v86h213v103q-129 -6 -254 28l20 74q103 -28 204.5 -27t197 27t180.5 76t155.5 119.5t122 157t79.5 189.5q27 101 26.5 202.5t-26.5 197t-75.5 181t-119 156t-157 122.5t-190.5 79l20 74 q112 -30 208.5 -87t172.5 -134t130.5 -171.5t83 -199t30 -216.5t-28.5 -224zM1612 430q-25 -92 -72 -170.5t-110 -141t-140 -107t-162.5 -68t-177 -25t-183.5 23.5t-170.5 71.5t-141 109.5t-107.5 140.5t-68.5 163t-24.5 177t24 183.5q25 93 72 172t110 141t140 106 t162.5 67.5t177 24.5t183.5 -23t170.5 -70.5t141 -109.5t107.5 -140.5t68.5 -163.5t24.5 -177.5t-24 -183.5zM1356 793q-2 -122 -31 -247l221 -59q14 66 13 130t-15 125zM1305 472q-38 -126 -96 -228l188 -51q42 48 75 102.5t54 117.5zM973 562l-64 -238l218 -58 q32 51 58 108t46 118zM982 893l-218 58q-32 -52 -58 -108t-45 -118l258 -70zM1168 175q-77 -116 -168 -177q94 8 176.5 42.5t154.5 91.5zM889 250l-63 -237q60 3 126.5 53t129.5 132zM815 270l-192 51q6 -50 17.5 -95.5t28 -83t37.5 -66t46 -44.5zM835 344l64 237l-258 69 q-29 -126 -24 -248zM593 107q-47 103 -56 237l-163 44q32 -85 88 -156t131 -125zM535 424q1 61 9 122t22 124l-221 60q-14 -66 -12.5 -130t15.5 -125zM586 744q38 130 96 229l-187 50q-43 -46 -76 -101t-54 -118zM724 1041q38 57 80 102t87 76q-94 -8 -177 -42.5t-153 -91.5 zM1002 967l64 237q-60 -4 -128 -53t-128 -133zM1076 947l192 -52q-6 51 -17.5 96.5t-27.5 83t-37 65.5t-46 44zM1056 873l-63 -237l258 -70q14 64 19.5 126t3.5 123zM1298 1110q47 -103 56 -238l163 -43q-32 85 -88 156t-131 125z" />
<glyph unicode="&#x126;" d="M1024 -338q-118 0 -227 30.5t-204 86t-173 133.5t-133.5 173t-86 204t-30.5 227t30.5 227t86 204t133.5 173t173 133.5t204 86t227 30.5t227 -30.5t204 -86t173 -133.5t133.5 -173t86 -204t30.5 -227t-30.5 -227t-86 -204t-133.5 -173t-173 -133.5t-204 -86t-227 -30.5z M1063 555h336q-2 88 -15 171.5t-38 164.5h-283v-336zM1063 477v-335h283q25 81 38 164.5t15 170.5h-336zM1475 477q-2 -88 -14.5 -171t-35.5 -164h278q42 75 66.5 159.5t29.5 175.5h-324zM1402 66q-53 -158 -142 -289q121 39 222 112.5t173 176.5h-253zM1146 -250 q57 70 100.5 149t75.5 167h-259v-325q43 3 83 9zM985 66h-277q32 -88 74.5 -165.5t97.5 -146.5q26 -5 52 -8t53 -5v325zM764 -215q-84 130 -137 281h-234q69 -97 162.5 -168t208.5 -113zM604 142q-22 81 -34.5 164t-14.5 171h-306q5 -91 29.5 -175.5t66.5 -159.5h259z M555 555q2 88 14.5 171.5t34.5 164.5h-259q-42 -75 -66.5 -158.5t-29.5 -177.5h306zM627 967q52 149 137 280q-115 -42 -208.5 -112.5t-162.5 -167.5h234zM985 1291q-27 -2 -53 -5t-52 -8q-55 -69 -97.5 -146t-74.5 -165h277v324zM985 891h-302q-47 -166 -53 -336h355v336z M630 477q6 -171 53 -335h302v335h-355zM1063 967h258q-32 88 -75 166.5t-100 148.5q-40 6 -83 9v-324zM1260 1255q45 -66 80 -138t62 -150h253q-72 103 -173 176.5t-222 111.5zM1425 891q23 -81 35.5 -164.5t14.5 -171.5h324q-5 94 -29.5 177.5t-66.5 158.5h-278z" />
<glyph unicode="&#x127;" d="M841 1042q5 0 15.5 2t15.5 -2q-8 -1 -13.5 -4t-13.5 -4v-5h-1q-4 2 -7 1v-4q7 -1 7 -6q-2 -1 -3.5 -0.5t-4.5 0.5q0 -2 1 -2.5t1 -1.5q2 -5 -0.5 -4t0.5 -4q-6 -1 -11.5 -5t-6.5 -11q2 -2 1 -3q-2 -3 -7 -3q-1 -1 -1 -3q-6 -5 -16 -7t-18 -4l-9 2q-4 -2 -7.5 -6t-8.5 -6 q-2 -1 -5 -2t-4 -2q-4 -1 -6.5 0.5t-6.5 -0.5q-5 -2 -5.5 -5t-3.5 -6q-2 -2 -5 -3t-5 -3t-1 -2.5t0 -2.5q-2 -3 -6 -6.5t-6 -6.5q-6 2 -8.5 4t-10.5 2q-1 4 -3 7.5t-4 7.5q-2 5 0 7.5t0 6.5q0 2 -0.5 1.5t-1.5 2.5q3 3 4.5 6.5t5.5 6.5h4t5 1q0 -3 2 7q-1 1 -5 1 q-2 -5 -10 -3v2h1q2 3 3.5 3.5t3.5 4.5h-5q-1 1 -1 2q4 2 4.5 8t0.5 10l-2 2t-2 3q-11 0 -21.5 0.5t-18.5 2.5q0 3 -1 4l3 3q-1 0 -2 1h-1q9 2 18 3t19 2l-2 8h-3q-1 -1 -1 -2v-1q-2 2 -7 2t-9 -2q-11 -4 -21.5 -7.5t-21.5 -5.5q0 -3 -1 -4q-7 -5 -22 -3t-27 0v-4q9 0 11 -1 q5 1 12 2.5t12 -2.5h-1v-1q-8 -3 -24 -3t-26 2v1q3 3 4 6h-2q-3 2 -4 1t-3 -2l-2 4h5q2 2 10 0.5t13 -1.5v3l-2 2h4v-4h9q0 2 0.5 3.5t0.5 3.5h-14q-1 3 -5 7q4 2 10.5 5.5t11.5 2.5q2 -1 4 -3t7 -2q0 3 -0.5 3.5t-1.5 2.5q10 1 25 3t30.5 3t30 0t24.5 -5q5 0 10 0.5t10 0.5 h16.5t15.5 -1v3l28 2t29 1h18q2 -1 5 -2t8 -1v-5zM688 1040h10l1 2v3q-3 0 -5.5 -0.5t-5.5 -0.5v-4zM677 1038q1 0 2 0.5t3 0.5v4q-1 -1 -5 -1v-4zM598 1033q1 2 0.5 1.5t1.5 1.5v3h-3q-1 -2 -1.5 -2.5t-1.5 -3.5h4zM524 1032q8 0 14 -3q0 -1 -0.5 -1.5t-0.5 -1.5 q-2 0 -2.5 -0.5t-2.5 -0.5q-4 4 -6 2t-7 2h2zM491 1029q6 0 8 -2q-5 0 -8.5 -1.5t-8.5 -2.5v2q5 0 9 4zM553 1024h-7q0 1 -2 3l8 2v-2h1v-3zM585 1026v-3h4v3h-4zM509 1024l1 -2h-1v2zM490 1016h6v-3q-2 0 -8 -1t-13 -2t-12.5 -2t-6.5 0l-2 3q-4 2 -6.5 1t-5.5 1v3 q-2 1 -5.5 0t-5.5 1q10 1 17 3t17 3v-1q-2 -2 -1.5 -1.5t-0.5 -2.5l1 -1q4 0 9 -3t8 -1v3q2 2 4.5 2t4.5 1v-3zM456 1019v-3h4v3h-4zM541 1013v-1q-5 -3 -12 -3v4q-6 -1 -13 -1.5t-11 5.5q1 1 5 1q3 -3 5 -1.5t6 2.5q2 0 5 -0.5t5 -0.5v-1q-1 -1 -1 -4h11zM450 1018v-3h5v3 h-5zM498 1012v-1q-1 1 -2 1h2zM461 993q5 2 5 3.5t3 3.5t4 0t4 0v3q2 0 3 0.5t3 0.5v-2q-11 -3 -12 -16q-1 0 7 -2v-1h-1q-1 -1 -6 -1v-4q-1 -1 -2 -1t-1 -1q-6 2 -11 2.5t-10 0.5v-3q5 -1 7 -2.5t6 -3.5q7 -3 13.5 0t10.5 4q0 3 -1 4q5 1 6.5 2t6.5 1v-5h-4q-1 -2 -2 -3.5 t-2 -4.5q5 1 9 4.5t8 5.5v4q-1 -1 -6 -1v2l5 6q2 2 6 2t6 2t1.5 3t0.5 3q4 5 11 5.5t15 0.5v-1h-2q-5 -4 -13 -4.5t-10 -7.5q2 -2 1.5 -5.5t1.5 -7.5q-3 0 -2.5 0t-1.5 -2v-1q0 -1 -0.5 -1t-0.5 -1q5 1 6 2.5t6 0.5q-2 -3 -3 -3.5t-2 -5.5q4 0 10.5 4t8.5 6t2 6 q-4 0 -5.5 0.5t-3.5 1.5q0 2 0.5 2.5t0.5 1.5v2q8 11 27 12t34 -2q0 -10 9 -11q1 1 4 1q2 -3 4.5 -4t4.5 -3v-1q0 -1 -0.5 -1t-0.5 -1q3 -1 2.5 -1t1.5 -2q-5 0 -5 -5q5 -2 11 -4.5t8 -6.5q-5 -2 -9.5 -5t-7.5 -2q-5 2 -5 4t-6 3q-2 -6 0 -11h3v-7q-1 -1 -2 -2.5t-3 -2.5 q-3 5 -11 5q1 -4 2 -5t2 -4h-3q-7 5 -17 4q0 7 -4 11q-3 1 -5 2t-4 1v-3q-2 0 -5 -0.5t-5 -0.5q-1 1 -1 2l4 4h10t9 1l1 4q5 3 8.5 4t3.5 9q-1 1 -0.5 0t-0.5 1h-4q0 -3 0 -2.5t-2 -1.5v3q-1 1 -1 3h-5v2q2 2 2 1.5t1 2.5q-1 0 -2 1h-1h-1q-1 0 -2 1v-3l-3 -3q-4 4 -15 4 q-1 -3 -0.5 -4.5t-1.5 -3.5q-1 -1 -5 -1q-2 -3 0 -4.5t-3 -3.5q-5 -3 -12 -3q0 -2 -0.5 -2.5t-0.5 -2.5q-3 2 -4.5 3.5t-5.5 2.5v-5q4 -2 8 -5t6 -7q-1 -1 -3 -1q-1 0 -1 -1q-2 1 -4 3.5t-6 0.5q-2 -1 -4 -2.5t-6 -2.5q-1 1 -1 2l-2 2h3q2 3 4.5 4.5t3.5 6.5q-5 -1 -8 -4 t-7 -5l-13 -2q-5 -2 -12 -5t-13.5 -7.5t-12 -9.5t-6.5 -10q5 0 6 -1q-1 -2 -1.5 -4t-0.5 -5q5 0 9.5 -0.5t8.5 -3.5q1 -1 0.5 -2.5t1.5 -2.5q4 -2 9.5 -2t10.5 -2q-3 -3 -5 -12q2 0 2.5 -0.5t2.5 -0.5v-1h-3h-1q-1 0 -2 1v-6q2 -2 2.5 -3.5t4.5 -2.5q4 3 6.5 3.5t2.5 8.5 q3 1 3 11q7 0 13.5 3t8.5 8q3 3 3 9q-2 2 -2 4l-1 1q2 2 4.5 3t4.5 3l2 8q1 4 7 10q4 -1 9 -2.5t7 2.5q1 -1 1 -2q6 -4 7 -8h6v-2q-3 -3 -3 -11q2 -2 3.5 -2.5t6.5 -0.5q2 2 7.5 5.5t8.5 4.5v-2q3 -4 3.5 -9t1.5 -10q0 -1 -1.5 -1.5t-0.5 -3.5q0 -1 1 -1.5t1 -2.5l12 -4 q-2 -5 5 -8q-2 -5 -3.5 -8t-1.5 -8h-4l-2 -6q2 -2 1.5 -1.5t0.5 -2.5q1 1 9 1q1 -1 0 -0.5t1 -0.5q-2 -5 -2.5 -7.5t3.5 -5.5v-1h-1l-5 -3v1q-1 1 -1 3q-5 0 -7 -2v4h-18v2q5 4 12 10.5t8 12.5q-8 0 -11 -3t-8 -5h-34l-7 -6q-2 -2 -6 -2.5t-6 -1.5v-4q8 2 13.5 4.5t12.5 0.5 q-2 -5 -4.5 -7.5t-3.5 -9.5l6 1.5t6 -2.5q-1 -1 -1 -3q6 0 7.5 2.5t5.5 4.5v-5l-6 -3l-29 -12l-2 3q3 2 5.5 2.5t4.5 2.5v3q-8 0 -12 -4q-8 -5 -17.5 -6t-10.5 -14q2 -2 1.5 -1t0.5 -1q-14 0 -22.5 -7t-13.5 -17h-4q-1 -5 -1.5 -4t-1.5 -1q-2 -3 0 -5.5t0 -4.5q-5 -5 -11 -7 t-11 -6q-6 -4 -10.5 -9t-9.5 -10q0 -13 0.5 -22t-3.5 -18q-1 1 -2 1q-2 4 -4 7.5t-3 7.5q0 6 2 11.5t-10 5.5q-2 -1 -10 2t-15 0q-2 -1 -3.5 -3.5t-3.5 -3.5q-5 -2 -10.5 2t-11.5 2q-3 -1 -12.5 -7t-11.5 -8q0 -10 -1 -12q0 -2 -2 -3.5t-3 -3.5q-4 -9 -2.5 -21t6.5 -19 q4 -4 13 -5q3 2 8 2.5t8 2.5q2 2 4.5 7t4.5 7q4 4 17 4q0 -5 -4.5 -12t-1.5 -9q-3 -3 -5 -4t2 -6q-6 -2 -6 -8q8 0 13.5 0.5t12.5 -0.5l3 -3t3 -5q-2 -2 -5 -12t-1 -14q1 -4 3.5 -6t4.5 -7q6 0 12 2.5t8 1.5q5 -2 6.5 -4t6.5 -3l2 3q2 4 4 6q3 3 5 8q3 2 6 1.5t6 1.5 q3 1 4.5 3t5.5 4v-2h1v-1h-1q-2 -2 -2.5 -2t-1.5 -4q1 -1 2 -1h1l2 -1q1 2 2.5 2t3.5 2q1 1 1 2.5t1 2.5q2 -5 4.5 -5t3.5 -6h6.5t6.5 1q2 -1 4 -3.5t7 -0.5q3 2 2.5 3t7.5 1v-5q1 1 7 1q1 -3 1.5 -3t2.5 -1l-2 -6q11 -1 13 -7t9 -10q5 -3 10 -1.5t11 -0.5q8 -3 15 -15 t6 -21l9 -5v-5q3 1 4 2t4 1q4 -1 6.5 -3t7.5 -2l1.5 -4.5t3.5 -2.5l13 -4h12q5 -2 8 -7t8 -7q3 -2 6 -1t5 -2q2 -2 3.5 -8.5t-0.5 -11.5t-6 -8.5t-7 -8.5q-2 -2 -2 -5.5t-2 -5.5q-1 -2 -2.5 -2t-2.5 -2v-29q-1 -3 -1.5 -8t-2.5 -9q0 -2 -1.5 -3.5t-2.5 -3.5q-2 -5 -3 -8.5 t-9 -3.5q-2 -2 -5 -1.5t-6 -1.5q-8 -3 -13.5 -8.5t-4.5 -18.5q2 -4 -2 -11t-5 -12q-1 1 -2 1h-1q-1 0 -2 1q-1 -5 -5 -16t-9 -13q-5 -3 -10.5 -0.5t-10.5 3.5v-3q4 -2 8 -7.5t5 -10.5l-6 -7q-3 -2 -8.5 -2t-9.5 -2q-2 -2 -1.5 -7t0.5 -6l-7 -2q-3 3 -7 3q0 -3 1 -5t1 -5 q3 -1 5.5 -0.5t4.5 -0.5q-1 -1 -1 -3q-1 1 -2 1h-1q-1 0 -2 1v-16h-4q-2 -3 -2.5 -4t-0.5 -6q3 -2 7 -4t7 -4q-2 -5 -4 -6.5t-2 -9.5h-3q0 -5 1 -6q2 -6 8.5 -13t12.5 -9q2 -2 4.5 -1.5t4.5 -1.5q-8 -1 -15.5 -2.5t-15.5 2.5l-3 3l-2 3q-2 1 -3 -0.5t-2 -0.5q-2 2 -3 3.5 t-5 2.5v4q-1 1 -2 1q-2 0 -4 1q-3 2 -9.5 13t-6.5 16h3v5l-8 3q3 4 2 7.5t-2 6.5h1v1q1 -1 2 -1h1l2 -1q0 11 -4 19h-3q0 -2 0.5 -4.5t0.5 -5.5h-2v2q-2 2 -3 8t-2 8v12q-1 2 -3 4.5t-3 4.5q0 2 1 2h1l2 33l-5 10q-2 4 -1.5 9.5t1.5 7.5q2 8 0.5 17t-2.5 16q-2 7 -0.5 15 t-1.5 16q-3 9 -13.5 14t-18.5 10q-5 4 -5.5 8t-3.5 9q-1 2 -2.5 3t-2.5 2q-5 8 -8.5 17t-8.5 17q-1 2 -2.5 2t-3.5 2t-3 6.5t-1 7.5q6 6 7 9q-5 5 -5 13q4 3 3.5 5.5t1.5 6.5q1 2 2.5 1.5t2.5 0.5q2 2 1.5 4.5t1.5 4.5q1 2 4 2.5t4 2.5v26q-5 5 -4.5 9.5t-8.5 4.5 q-1 -4 -5 -4q-1 -3 0.5 -3.5t-0.5 -2.5q-1 -1 -3 -1q-2 2 -1.5 1.5t-2.5 0.5q0 2 -1 3t-4.5 1.5t-5.5 1.5q0 2 0.5 2t-0.5 2q-5 5 -8.5 5t-3.5 11h1l2 -2h1l2 -1v4q-2 1 -2.5 1.5t-3.5 0.5q0 -2 -1 -3l-8 11v2h-9q-1 0 -2.5 1.5t-3.5 1.5q-1 1 -8 1q-5 3 -7 8.5t-9 7.5 q-5 1 -7 -2t-7 -2q-4 1 -11 4t-14 7.5t-13 9t-7 7.5t0.5 9t-0.5 11q-2 6 -7.5 11t-8.5 10l2 2v3q-5 2 -6.5 6t-3.5 8q-2 0 -2.5 0.5t-1.5 0.5q1 1 1 4v5q0 2 -1 4.5t-1 4.5q-6 0 -7 1v-1h-1q-2 -8 0 -14h3q0 -4 2 -11l4 -14t4 -12t2 -6l-2 -1q-2 6 -5 7.5t-5 6.5q1 3 0 10 q-8 4 -10 8q4 1 4.5 1.5t1.5 5.5q-9 8 -7 16.5t-3 16.5q-4 4 -12 7q0 16 -3 28q-1 2 0.5 4.5t0.5 4.5q1 2 2.5 2.5t2.5 2.5l4 13q3 4 7.5 7.5t7.5 7.5q2 5 4 11.5t7 8.5v4h-3q-2 4 -4 5.5t-3 6.5h1q1 -1 6 -1q-1 1 -1 7q0 2 1 3t1 3t-2 4.5t0 5.5q1 2 2 2.5t2 4.5l-8 3 q0 -2 0.5 -2.5t0.5 -2.5h-3v10.5t2 8.5q1 -1 4 -1v4q-3 0 -4 1l-6 8q-2 2 -11.5 3t-12.5 2v3q-2 0 -4.5 -0.5t-4.5 -0.5v-5q-15 0 -24 -4v1v1l1 2q-7 0 -9.5 -3t-6.5 -5q-5 -3 -11 -4t-12 -3q-8 -3 -15.5 -7t-18.5 -5q1 -1 1 -4h-4q-2 2 -3 2t-3 1q4 0 11 2t14 5t12.5 6.5 t6.5 6.5q-6 0 -7 -1q-3 2 -3.5 2t-5.5 -1v2q4 2 5 6q-8 0 -9 -1v1h-1q1 1 1 4q4 2 3 3t1 3t7.5 4t12 3.5l13 3t10.5 2.5q1 0 1 1q0 3 1 4q-5 0 -10 -0.5t-10 0.5v2q1 1 1 4q6 2 12 2.5t12 2.5q2 -1 1.5 -2t4.5 -2q2 2 4 7q-5 4 0 9q4 2 9.5 2t10.5 2q32 14 71 5q8 -2 16 -1 t16 -2q0 -2 0.5 -2t0.5 -1t1 -1q5 -2 8.5 0.5t5.5 3.5l12 -2q7 2 14 3t14 3v-6q6 2 10 4v-4q3 1 5.5 3t6.5 0q1 0 2.5 -1.5l2.5 -2.5l18 -2v-1h-1q-1 -1 -5 -1v-4q7 0 12.5 0.5t13.5 1.5v-3h3q1 1 1 7q-5 -1 -8.5 -1h-8.5v4h-8l-3 4q6 1 6 13q-6 -1 -10.5 -3t-11.5 -3 q-1 3 -1 3.5t-2 2.5q8 1 13 5.5t10 6.5h5.5t9 -0.5t8.5 -1.5l4 -1l4 -6q5 -2 9.5 -1t6.5 0q1 -1 1 -5zM499 1003l18 2v-1q-2 -3 -3.5 -5.5t-5.5 -3.5q-5 -5 -12 -3l-6 7h4q1 -1 5 -1v5zM555 996h4v4q-2 0 -3 -1h-1v-3zM580 996h6q0 2 -1 3t-3 1v-1h-2v-3zM552 995v-4h4v4h-4 zM687 991q0 -2 1 -3q0 -1 5 -2v4h-2q-1 1 -4 1zM422 988v-4h6v4h-6zM582 971q-6 -3 -11 -3v1h1q2 2 3.5 2.5t3.5 2.5zM592 961q7 0 8 1v3h-2q-1 1 -4 1q-1 -1 -2 -5zM363 961q-8 -2 -9 -7q8 0 14 1.5l14 3.5v4q-5 0 -8 1t-11 0v-3zM508 959v-3h3v3h-3zM522 941 q2 -1 2.5 -0.5t1.5 -0.5q-2 -1 -4 -1.5t0 2.5zM372 940q-1 -1 -1 -4q-3 -2 -5.5 -2t-4.5 -5q8 0 12.5 1.5t11.5 3.5v3q-5 0 -7 1t-6 2zM537 937v-1q-1 1 -2 1h2zM605 935v-1q-1 0 -2 1h2zM114 925q2 0 3 -1h-2q-2 0 -1 1zM170 914v-1q-1 0 -2 1h2zM165 911v-1h-1 q-4 -4 -14 -6v2h1q2 2 5.5 2.5t6.5 2.5h2zM516 902q0 -1 1 -2q-1 -1 -5 -2v3q2 1 1.5 0.5t1.5 1.5zM100 895v-1l-3 1h3zM97 894v-1q-1 0 -2 1h2zM91 893v-2q-2 1 -1.5 1t-0.5 1h2zM84 891q3 0 4 -1q-1 1 -4 1zM240 884q-2 -2 -4 -8h-1v6q1 0 1 1q0 2 1 3zM403 873q1 -1 7 -1 v2q2 2 2 5.5v6.5h-5q-4 -4 -4 -13zM254 860q1 -3 3 -5t1 -5h-1q-1 0 -1 -3h3v3h4l-2 7l-3 1.5t-4 1.5zM580 856v-2h-1q-2 2 -3.5 2.5t-3.5 2.5zM419 839q6 -1 9.5 0t8.5 2q2 -5 9 -5q3 3 10 3v8q-4 2 -4 3.5t-6 2.5q-5 -4 -15 -6.5t-12 -7.5zM564 835v-3h5v3h-5zM436 832 q-2 -8 -6.5 -12t-5.5 -15h5q5 7 9 14.5t12 10.5v4q-5 0 -7 -1t-7 -1zM453 834q1 -4 2 -4t1 -1q1 -2 -1 -4.5t-2 -4.5q1 0 1.5 -0.5t1.5 -0.5q-1 -1 -1 -5h5q2 5 8 13q3 -3 6 -4v3q1 1 -1 7q-1 1 -5 1q-2 -1 -6 -0.5t-9 0.5zM473 815q14 0 17 1v2h1v3l-18 -2v-4zM447 804 q9 -1 13.5 1t10.5 4v4q-8 -1 -12.5 -3t-11.5 -3v-3zM443 691q1 -1 1 -2h-1v2zM444 689q1 -2 1 -1.5t1 -1.5h-2v3zM444 664q-2 0 -2.5 -0.5t-1.5 -0.5l-3 7q-8 0 -12.5 3t-11.5 4q-2 -2 -5 -3t-5 -3v2h2q6 7 13.5 6.5t15.5 -4t15 -8.5t12 -7v-1h-5q-2 -1 -6 -1h-7q-1 1 -1 2 q2 2 1.5 1.5t0.5 2.5zM470 650q0 7 -1 8h2q7 -4 14 -3t9 -9h-2q-3 3 -7 2t-8.5 -2t-9 -1t-7.5 4h7h1zM437 648q3 0 5 -0.5t4 -1.5v-1h-2h-1q-1 0 -1 -0.5t-1 -0.5zM510 648v-2h-1q-6 -5 -6 2h7zM532 596q1 -1 0 -5h-1q0 2 0.5 2.5t0.5 2.5zM474 584v8q-1 0 -5 2q-1 -1 -1 -7 l1 -3h5zM191 584h-3q0 3 1 4zM198 532q-3 -1 -3 -1.5t-2 -2.5q-1 0 -1.5 0.5t-1.5 0.5q-1 1 -1 6q-7 1 -6.5 2.5t-1.5 2.5q-1 -1 -6 -1q-6 -1 -11 -1.5t-7 -4.5q1 -1 1 -4h-3q-4 -4 -6 -8q5 0 5 0.5t1 -4.5q-3 -2 -2.5 -4.5t-1.5 -4.5q-1 -1 -6 -1q-3 8 -14 3q0 6 -1 7 q2 2 3.5 8.5t6.5 9.5v1h1q0 -2 1 -3v1q3 3 3 7q-1 -1 -8 -1v1q3 3 4 6q-8 1 -10 11q2 2 1.5 5.5t1.5 5.5q2 4 6 7t7 6v-2q4 0 5 1q2 -1 2.5 -2.5t2.5 -1.5l6 3q0 2 1 3h1l2 -1q1 -4 1.5 -3t1.5 -1v-9q8 -1 11.5 0.5t11.5 1.5q2 -2 5.5 -3.5t6.5 -3.5q-2 -6 3 -11t3 -6 q-2 -2 -9 -4q-1 -5 -2 -6t-2 -5zM177 582q3 -3 4 -7h-3v1l-2 2q0 2 0.5 2.5t0.5 1.5zM134 544v-1h-1v-1q-1 1 -1 0.5t-1 1.5h3zM168 533q-1 -1 -1.5 -2.5t-1.5 -1.5q-1 2 0 2t0 2h3zM352 521q1 -1 0.5 -1.5t0.5 -2.5h-1v4zM484 415l6 -2v4q-1 1 -2 1q-2 0 -4 1v-4zM594 177 q3 1 13 -1l-1 -1l-2 -2q-4 2 -4.5 1.5t-5.5 -1.5v4zM550 165v-4h3v4h-3zM1335 1018q19 1 34 -5q0 -1 -1 -2q-6 -6 -13 -7v-4l10 2v3q2 1 4.5 3t5.5 0q1 -2 1.5 -2.5l1.5 -1.5l1 -1h23q8 -4 21 -4v5h3q5 -3 10.5 -2t10.5 -2q7 -2 10.5 -7t13.5 -5v4q8 -1 14.5 -0.5t14.5 0.5 v4q-3 0 -4 1h1q7 5 16.5 1t15.5 -3q8 1 13.5 -1.5t13.5 -4.5h30q5 -2 8.5 -4.5t8.5 -3.5h31q2 0 2 1.5t3 0.5t5.5 -3.5t8.5 -3.5v3q-2 1 -3 2t-3 2q25 1 45 -5t39 -12q10 -3 19 -1.5t16 -5.5h-1q-2 -2 -2.5 -2t-1.5 -3q1 -1 2 -1l2 -2h-6q-5 5 -15 6t-18 2v-4v-1 q0 -1 -0.5 -2t-0.5 -2l18 -9v-1q-20 0 -23 -15q-9 2 -10 2.5t-9 -3.5q-2 5 -4 3v-3h-8l2 -6t2 -7h3.5t4.5 -1q3 -2 4 -4t6 -4l-3 -6q4 -2 6 -6h-3q0 -5 0.5 -6t2.5 -3h-3q0 -5 0.5 -6t1.5 -6h-1v-1h-1v1q-2 1 -7.5 5.5t-11.5 9.5t-11 10t-6 7l-2 9q4 2 6 10.5t2 13.5 q-2 2 -3 2.5t-1 4.5h-6q0 -5 0.5 -5t2.5 -2q-3 -1 -3.5 -2t-2.5 -3q-8 7 -21 6v-3q-2 -2 -2 -10q3 -1 6 -4h-7q-1 -1 -7 -1v4l-14 2l-2 -3q-2 -2 -6.5 -1t-5.5 2q-3 1 -9 0.5t-8 -1.5l-5 -14q-5 -13 -5 -16q8 0 9 -1q0 -1 0.5 -1.5t0.5 -1.5q2 -2 3 0.5t2 1.5q2 -2 1.5 -3 t4.5 -2v5h2q4 -2 7.5 -4t8.5 -3q1 -1 1 -2l1 -2v-1h3q-1 1 -1 4v1v3h1v-1q8 -5 13.5 -13t13.5 -13q-3 -3 -3 -4t2 -6h-1v1q-6 5 -10 14t-14 11q1 -8 4.5 -11.5t5.5 -8.5q2 -9 -2 -23t-9 -16q-3 -2 -5 -1t-5 2q-2 -3 -4 -5t-2 -8v-1q0 -1 1 -2q-6 -3 -7 -10q7 -4 14 -11 t8 -17q-4 -4 -14 -4q-1 7 -2.5 11.5t-3.5 9.5l-11 3q0 5 -3 10q-2 1 -6 1h-8q-2 -4 -5 -5v4h-2q0 1 1 3.5t-1 4.5q-1 1 -6 1q-2 -4 -5 -7.5t-8 -4.5v-6h5t5 -2q3 -2 1.5 -3.5t5.5 -2.5q4 6 15 1v-2q-6 0 -9.5 -4.5t-3.5 -10.5q7 -2 14.5 -11.5t9.5 -14.5q-1 -1 -2 -1h-1v-1 q0 -1 -0.5 -1.5t-0.5 -1.5q7 0 8 -1q-1 -9 -4 -18t-7.5 -16.5t-11 -12t-15.5 -3.5v-4q-4 0 -9 -1t-7 -5q-1 -1 -1 -8h4q-1 -3 -1 -5t-2 -4q-1 -1 -7 -1l-2 3q0 1 0.5 1.5t0.5 2.5q5 3 6 7q-2 2 -2 7h-13q-2 -6 -5.5 -8t-4.5 -11q2 -2 3.5 -4.5t3.5 -4.5q10 -10 14.5 -16 t4.5 -24q-8 -4 -12.5 -9t-10.5 -10q0 9 1 10q-8 2 -11.5 7t-8.5 10h-6v5q-2 0 -3 0.5t-3 0.5q0 -8 -1.5 -14t-1.5 -16h3q1 -2 3 -8t4 -8h5v-2q2 -2 3.5 -2.5t3.5 -2.5q4 -5 3.5 -8.5t1.5 -11.5q1 -3 2.5 -5t1.5 -7h-1v3q-5 2 -10.5 6.5t-8.5 9.5q-4 8 -4.5 17t-11.5 11 q0 9 1 19.5t-1 15.5q-1 2 -3 5.5t-3 5.5q-2 5 -2.5 9t-5.5 6l-8 -8q-1 1 -6 1v10t-1 9h-2v1h-3v6q-8 4 -10.5 11t-8.5 9q0 -3 -1 -4q-4 -3 -9.5 -2.5t-10.5 -0.5l-2 -10l-7 -3l-12 -14q-2 -2 -5 -2v-5q-1 -2 -5 -4t-6 -2q0 -2 0.5 -7.5t0.5 -11.5v-11t-1 -6h-3q-2 -8 -2 -9 q-3 0 -4 -1q-2 -2 -1.5 -2.5t-3.5 -1.5q-19 30 -30 65l-3 24q-5 -1 -7 -3t-5 -1q-4 1 -11 10h6v3q-3 0 -4 1q-10 2 -12.5 9t-12.5 8q-3 -2 -9.5 -2.5t-13.5 0.5t-13.5 2t-9.5 2q-2 3 -3 6t-6 3q-2 -5 -7 -4l-10 2q-2 5 -7.5 7.5t-8.5 7.5q-1 2 -1 4t-2 3h-10 q-1 -2 -1.5 -2.5t-0.5 -3.5l2 -8q1 -2 6.5 -7t7.5 -7q0 -2 -0.5 -2.5t-0.5 -2.5q3 1 4 2.5t2 1.5q2 -2 1.5 -6t1.5 -6q3 -2 7.5 -0.5t8.5 1.5q2 4 4.5 6t4.5 7h1q0 -7 3 -14q5 -2 10.5 -4.5t7.5 -9.5q-2 -2 -3 -5.5t-3 -6.5l-3 2v-10q-7 -2 -6 -3.5t-2 -3.5q-2 0 -3 -0.5 t-3 -0.5q-2 -2 -1 -3.5t-1 -2.5q-3 0 -6 -0.5t-5 -0.5q-3 -2 -4 -4.5t-3 -4.5q-2 -1 -5 -2t-7 -2q-2 -1 -3.5 -3t-3.5 -3h-6q-4 -2 -10.5 -6t-10.5 -2q-5 2 -5 9t-3 12q-2 2 -3.5 2.5t-3.5 4.5h3v-3h4q-2 10 -10 17t-12 14q-2 4 -1.5 6.5t-1.5 6.5q-2 5 -4.5 7t-4.5 4 q-4 6 -7 14t-11 9q-2 -1 -2.5 0t-4.5 1q2 -8 7 -14.5t7 -13.5q2 -2 1 -4t1 -4l7 -6q2 -4 1.5 -9.5t1.5 -10.5q2 -3 5 -5t5 -4q2 -4 2 -8t2 -7h4v-4q6 -2 12 -8t8 -12l-3 -3q5 -3 6.5 -5t9.5 -2q1 1 6 2t11 3l15 3q2 -2 2 -8q-2 -2 -1.5 -3t-1.5 -4q-1 -4 -3.5 -7.5 t-4.5 -6.5l-3.5 -10.5t-4.5 -9.5q-4 -6 -9.5 -10t-10.5 -8t-14.5 -16.5t-12.5 -18.5q-2 -3 -6 -9.5t-1 -11.5h2q2 -3 1 -4.5t2 -3.5q0 -1 -1.5 -1.5t-1.5 -2.5l3 -12l4 -3q2 -4 1 -14t0 -14q-2 -6 -8 -10.5t-12.5 -9t-11.5 -9.5t-5 -12q4 -5 3.5 -11t-1.5 -13l-15 -8 q0 -6 -0.5 -12.5t-4.5 -9.5q-2 -2 -3.5 -2.5t-3.5 -2.5q-6 -11 -14.5 -20.5t-22.5 -11.5q-2 0 -5.5 1.5t-7.5 0.5q-2 -1 -7.5 -3.5t-7.5 -1.5q-2 0 -3 1.5t-4 1.5q-1 10 -3 19.5t-7 18.5q-1 2 -3 4l-4 4q-2 5 -2.5 10.5t-1.5 10.5v13q-1 2 -3 4.5t-3 4.5q-2 4 -2.5 7.5 t-2.5 7.5q-1 1 -2.5 1.5t-2.5 2.5q-2 6 1 18.5t5 16.5q2 2 3.5 3t2.5 3q2 7 -0.5 12t-4.5 8q0 2 2 3t1 4q-2 8 -6 17t-8 15q-2 2 -4.5 3.5t-4.5 3.5t-2 4.5t-2 4.5q2 7 4 16t0 17q-4 3 -6.5 4t-10.5 1q-2 -2 -3 -1.5l-3 1.5q-3 8 -7 10.5t-15 2.5l-5 -2.5t-8 -3.5 q-5 -3 -11 -5q-4 -1 -10 1.5t-12 0.5q-4 -1 -6.5 -2.5t-7.5 -1.5q-3 3 -6.5 5t-6.5 4l-6 7q-2 2 -4.5 2.5t-4.5 2.5l-4 13l-10 12q-2 1 -3.5 0.5t-2.5 0.5q2 3 -0.5 4t-3.5 4q1 1 1 9q0 2 -1 3t-1 3q1 4 3.5 9t3.5 9q2 4 0 7.5t-2 5.5q0 1 1 3t1 4q-1 0 -2 1h-2q-1 0 -1 1 q-1 1 0.5 4.5t4 7.5t4.5 7.5l2 3.5q2 3 3 6.5t3 6.5q2 2 6 4q1 2 1 4.5t2 3.5h5q5 1 12 8q3 5 3 11.5t3 11.5q2 4 7.5 5.5t8.5 5.5q4 6 4 13t-10 8q-1 -1 -6 -1q0 5 -1.5 8.5t-0.5 5.5q0 2 2 3.5t3 3.5q1 5 -0.5 11t0.5 8q6 5 19 3t22 -1q0 5 1.5 10t-0.5 9q-3 8 -8.5 8.5 t-8.5 5.5q1 1 4 1q2 2 5.5 1.5t7.5 -1.5q-1 1 -1 7h2q2 -2 7 -2q4 5 11 8.5t11 8.5q2 2 3 5.5t3 4.5h8l10 2q1 1 1 7q-8 5 -2 13l4 2t5 2v-2q-1 -1 -1 -4q2 0 3 -1q-1 -1 -1 -5q3 1 5.5 1.5t5.5 0.5q0 3 -4 12t-5 10h-4q-7 -7 -17 -7l-2 1l-5 6q2 3 1 7t-1 9q8 4 12.5 7 t15.5 4v7q3 0 4 1q3 3 7.5 8.5t5.5 10.5q-1 1 -1 2q1 0 2 1q1 0 2 1q2 0 2.5 -1t2.5 0h1q1 1 1 4h5q2 2 2 3q2 0 3 -0.5t3 -0.5q3 1 6 2.5l5 2.5q11 0 13 1q0 -1 0.5 -1.5t0.5 -1.5q3 0 3 1t2 2l12 -3v-4q5 0 13.5 -1.5t16.5 -4t14 -5.5t7 -7q-3 -1 -4 -1.5t-4 -0.5 q-4 -2 -11 0t-13 2v-3q1 -1 2 -1l2 -1q2 -2 2.5 -4.5t1.5 -4.5l7.5 -1.5t7.5 -0.5v3q-1 1 -8 1q2 2 1 1.5t1 0.5t6 -0.5t8 -2.5v6l7 6q2 -1 4 -1.5t5 -0.5q1 1 1 5q-4 1 -4 9q6 0 9 -3q-2 -2 -2.5 -2t-1.5 -4q2 0 4.5 -1.5t5.5 -0.5q2 1 2.5 3t2.5 3q4 3 10.5 4.5t11.5 2.5 v-3h4q5 0 17 3q1 -1 1 -3h4q1 2 1.5 2t1.5 3q-4 1 -7 4q13 -2 22.5 -5t20.5 -4q0 2 -1 3q-2 2 -5 3t-5 3t-2.5 3.5t-1.5 3.5q3 2 5 12q9 -2 15 -6q0 -2 -0.5 -3t-0.5 -3q1 -1 3 -1t3 -1q2 -3 1.5 -6t1.5 -5t4.5 -1.5t2.5 -1.5q1 -3 -1.5 -6t-2.5 -6h7q5 7 4 7.5t-2 8.5h-5 q0 1 -2 3l-1 1v7q-2 2 -3.5 1.5t-2.5 1.5q1 7 5 4q2 -3 2 -4t5 -2v6q2 0 3 0.5t3 0.5q2 -2 7.5 -3t9.5 -2v4q-10 1 -13 7q7 0 10 0.5t8 0.5q-1 4 -1.5 3.5t1.5 1.5q4 3 12.5 4.5t14.5 2.5v4h2q3 -5 8.5 -4t10.5 2q0 3 1 4l2 1q5 3 10.5 0t9.5 -1v-4zM1747 426q2 0 3 0.5 t3 0.5q4 -11 4 -34q5 -1 6.5 -3t6.5 -4q-1 -2 0 -6.5t4 -6.5h1l2 -1q0 -8 3 -12t7 -9q-2 -3 -1.5 -6.5t-1.5 -8.5q-1 -5 -4.5 -11.5t-5.5 -11.5q-5 -8 -16 -16t-17 -16q-2 -3 -3.5 -6.5t-3.5 -5.5q-6 -4 -11.5 -3.5t-10.5 -4.5q-2 0 -3.5 1.5t-3.5 1.5q-3 1 -4.5 -0.5 t-2.5 -1.5q-4 -1 -9 2t-7 5q-1 2 -0.5 5.5t0.5 7.5q-2 0 -4 2q3 3 3 7q-3 1 -2.5 1t-0.5 2q3 1 3 5q-3 0 -4 -1l-12 -9q-4 5 -2.5 9.5t-3.5 7.5q-7 4 -25 2.5t-25 -5.5q-5 -2 -7.5 -5.5t-6.5 -2.5q-7 1 -14 -1.5t-13 -4.5t-10.5 -2t-7.5 7q5 3 6.5 9.5t1.5 14.5t-1 15.5 t-2 13.5h2q3 0 4 -1l-3 14q0 1 1.5 2t2.5 2q1 2 0.5 4t0.5 4q7 1 10.5 5.5t9.5 6.5q5 2 13 2.5t13 3.5t7.5 9.5t4.5 11.5l6 -3v5h5q2 6 5.5 10.5t10.5 4.5v2h2v-2q4 -2 5 -4t9 -2v5q3 3 4 6.5t6 5.5q1 1 10 1v6h2q5 -5 11 -4.5t11 -1.5q-2 -5 -5.5 -9t-4.5 -10 q7 -4 13 -10.5t16 -6.5q5 9 9 21.5t6 23.5h3v-6.5t2 -5.5h2q1 -2 -0.5 -5t-1.5 -6zM1875 286q2 0 3 -1t1 -4q-1 -1 -1 -6q3 -1 2.5 -1t1.5 -2q-1 -1 -1 -3q2 -2 8 -2h1l2 1v-1h-1q-4 -7 -7 -6t-7 -3v-2q-2 -3 -7.5 -7.5t-8.5 -5.5q-2 -1 -4 1t-5 0q-1 -2 -2 -3t-2 -3 q-3 -2 -6.5 -3.5t-6.5 -3.5v-3q-14 -2 -19.5 -9.5t-19.5 -9.5l-6 5q5 2 9.5 6t9.5 6t10.5 3.5t10.5 4.5t9.5 7.5t9.5 6.5q2 -3 5.5 -2.5t7.5 1.5l2.5 2.5t0.5 4.5q-1 1 -1.5 1t-1.5 2q5 3 7 5.5t6 6.5v17zM1670 282q1 -1 2 -1h1h-2q-1 -1 -4 0q2 0 3 1zM1715 252q1 -1 1 -2 h-1v2zM1695 248q2 -1 2.5 -1.5l1.5 -1.5q5 -2 8 0t6 0l-9 -10v-2q-2 -2 -4.5 -2t-4.5 -2q-1 1 -2 1l-2 3zM1263 189q0 4 1 5q4 -2 6 -4h-1q-1 -1 -6 -1zM755 1046v-3h4v3h-4zM1135 1038q4 1 5 1.5t5 -0.5v-1q-2 0 -2.5 -1t-1.5 -1q-6 0 -12 0.5t-12 1.5v2q5 1 9.5 2.5 t6.5 0.5q2 -2 1.5 -2t0.5 -3zM1153 1040q3 0 4 -1q-3 0 -4 1zM1292 1034q0 -2 0.5 -2t0.5 -2h-6q-3 2 -12 2.5t-15 0.5l-2 3q0 1 0.5 1.5t0.5 1.5q11 2 17 -0.5t16 -4.5zM1093 1039q3 0 4 -1v-1h-4v2zM1107 1039v-3h-4q-1 2 -1 1.5t-1 1.5h6zM995 1030q4 -1 9 -2.5t7 -3.5 h-3q-1 -1 -3 -1q-3 2 -6 3.5t-8 2.5q-2 -3 -4 -4.5t-4 -5.5q-3 1 -11.5 5t-10.5 6l-2 4h12q3 -2 7.5 0t8.5 3h6t10.5 -0.5t10 -1t5.5 -1.5q-6 -1 -11 -1h-13v-3zM1117 1038v-1q-1 1 -2 1h2zM988 1034v-3h5v3h-5zM1300 1032q5 0 8.5 -1t8.5 -1v-3h-11q-1 -1 -6 -1v6z M973 1030v-4h4v4h-4zM1141 1011q7 2 10 5q2 1 7.5 1.5t11.5 1t10.5 0.5h6.5v-1q-13 -1 -27 -6.5t-15 -18.5q6 -4 11 -5v-2h-2q-5 3 -12.5 3t-10.5 6q9 7 10 16zM1463 1016q6 0 17.5 -0.5t15.5 -3.5h-1q-5 -4 -17.5 -2.5t-14.5 6.5zM844 1012v-1q-1 1 -2 1h2zM1505 1012h9 t7 -2h-9t-7 2zM1491 1004q5 0 11 -2q-5 0 -11 2zM811 1002v-4h4v4h-4zM1674 993q7 0 8 -4h-10v2q2 2 1.5 1t0.5 1zM805 984h8l-2 6q-1 1 -6 1v-7zM1167 984q2 0 3 -1q-2 0 -3 1zM1123 979h6v-1h-1q-1 -1 -5 -1v2zM1249 977v-3h3v3h-3zM803 957v1h1q3 3 9 4q1 -4 5 -5 q4 4 13 4.5t13 0.5q1 -3 2 -3.5t3 -2.5l-1 -1q-3 -2 -13.5 -7t-16.5 -3l-9 3v1q2 2 1 3.5t-2 4.5h-5zM967 893l-2 -3q-1 1 -8 1v-3q1 -1 3 -1h1v-1q3 -2 6.5 0.5t6.5 2.5q1 -5 9 -3q5 4 10 3.5t12 -1.5q1 3 6 5q-1 15 7 16q2 -3 8 -5v10h-2q-3 2 -5 0.5t-5 -1.5v1q1 1 1 3 q7 1 15.5 2.5t16.5 2.5v5q-9 1 -18 -1.5t-17 1.5q-1 1 -1 9q-2 2 -2 3.5v4.5h5q4 8 12 10v4q-8 1 -15 0q-2 -2 -3.5 -6t-3.5 -5q-5 -4 -9 -4.5t-4 -8.5q-1 -1 -1 -5l9 -6l-1 -1q-3 -5 -6.5 -6t-3.5 -9q2 -2 1.5 -3l-1.5 -3q-9 -1 -10.5 -3t-10.5 -2v-3zM878 937v-1 q-1 1 -2 1h2zM902 927l1 -3h-1v3zM897 909v-2q-3 -3 -4 -9q5 -2 9 -7.5t4 -11.5h6q1 -1 1 -2q-1 -3 -2 -4t-1 -6q-8 -1 -15.5 -2.5t-15.5 -2.5v1q5 3 6 7q-2 1 -3 1t-3 2h3l2 2v1q0 2 1 3q-2 1 -1.5 0.5t-0.5 1.5h4t3 2q2 4 -0.5 6.5t-7.5 1.5v4h-4v2q-2 6 -2 11l16 8v-2 q-4 -1 -4 -5h9zM998 910q1 -2 0.5 -1.5t-0.5 -1.5h-1q0 2 1 3zM1449 896q1 -15 -7 -22q-1 -1 -3 -1v-4q2 0 4 0.5t4 0.5q2 5 4.5 6.5t3.5 7.5q2 3 1 5.5t-2 5.5h-1v1h-4zM854 875q2 2 3 2.5t1 4.5q-2 0 -3 1l2 4q4 2 8 4.5t10 2.5l3 -4q-2 -2 -3 -7t-3 -7q-6 -5 -18 -6v5z M1709 864q1 -1 1 -0.5t1 -1.5h-2v2zM1652 846q3 -2 5 -4t6 -3v-1q-3 -1 -3.5 -2t-1.5 0q-5 3 -6 10zM1107 841q-5 -1 -8.5 -1.5t-5.5 -0.5q-2 -2 -2.5 -3t-1.5 -6q3 -1 7 -1h8zM1174 795q-1 -5 -2 -8.5t0 -8.5q9 -4 13 -5.5t16 -0.5q0 5 -1 8.5t-2 7.5h-3q-1 5 -2 5.5 t-2 5.5h1q1 -1 7 -1v4q-2 2 -2.5 3t-5.5 2l-2 -2q-1 1 -1 3t-1 4l-13 11h2q0 2 0.5 2.5t0.5 1.5t1 2q2 0 4 -0.5t5 -0.5q0 6 -3 11q-1 1 -8 1q-4 2 -11 -3t-9 -8l-1.5 -3t-0.5 -4q8 -5 10 -14t13 -12v-1h-3zM1298 830l3 4v5h-4q-1 -3 -1.5 -4t-1.5 -5h4zM1051 796h10 q0 4 -1 5h14q5 5 11 5t13 -2t14.5 -3.5t15.5 1.5q1 1 1 7l-1 3q-8 5 -15.5 10.5t-19.5 5.5q-5 -3 -11 -3q0 2 -1 3q-2 2 -4 2q2 2 2 1.5t1 2.5q-5 1 -7 2t-7 2q-4 -8 -8.5 -14.5t-4.5 -17.5q4 -2 7 -5q-2 0 -4.5 -0.5t-4.5 -0.5v-4zM990 806q0 -3 1 -4q2 -2 8 -4v-2 q-5 1 -6 0.5t-1 -5.5l3 -4q-3 -2 -3 -3t-4 -3h-1q-1 0 -1 -0.5t-1 -0.5q0 -3 -0.5 -4.5t-0.5 -3.5q-3 2 -7 3.5t-6 4.5q6 0 10 0.5t9 1.5v10l-11 9q-1 1 -6 1l-14 11q-2 2 -1.5 4t-1.5 4q-6 2 -9 2q-6 -8 -13 -6.5t-16 -1.5q0 -3 0.5 -4.5t-0.5 -3.5q-7 -4 -13 -7.5 t-6 -13.5q2 0 1 -1h-1q-3 -7 -8 -10t-16 -3q-2 -2 -4 -2q-1 -1 -1 -6q6 -3 14 -3q5 -3 10 1t9 6t11 3.5t12 0.5q2 0 3 -1t3 0q2 0 3.5 1t3.5 1q4 0 10 1t7 0t2 -1l2 -1q-2 -5 -0.5 -7t1.5 -7h-3q-1 -2 -1.5 -2.5t-0.5 -3.5q4 -2 6.5 -4t5.5 -3q5 -2 8.5 -1t7.5 -1l4 -9h6 q5 -2 8.5 -4t8.5 -3q2 3 2.5 4t0.5 6q-1 1 4 6q4 4 7 2q2 -1 8 -3.5t13 -5t13.5 -4t9.5 -0.5q1 0 2 1.5t2 2.5q7 2 12 -1.5t10 1.5t6 16t1 20q-2 0 -5 0.5t-5 -0.5t-3.5 -2.5t-3.5 -2.5q-5 2 -6.5 4t-8.5 2q0 -2 -1 -3l-3 -2q-4 4 -8 4q-1 -1 -1 -2l-1 -2v4h-4q2 6 -1 7.5 t-6 4.5h4v3q-4 1 -4 7q1 1 1 5h-3q-1 1 -10 1v-6h-2l-2 2h-3v-5q7 -6 9 -12h-4q-2 -7 -5 -8l-2 2h-3q0 4 -1 5t-1 6h-4q0 5 -2.5 6.5t-4.5 5.5q-1 3 0 6t-1 5q-5 5 -13.5 7.5t-9.5 10.5q-3 0 -4.5 1t-4.5 2v4h-5q-2 -10 -2 -11q5 -2 7 -6.5t6 -6.5q6 -2 9 -2zM1216 830 q0 -5 6 -9q1 -1 4 -1v2q3 4 0.5 7t-7.5 3zM1687 814h-5q-1 -2 -1 -3t-2 -3q-3 3 -13 3q0 -3 -1 -4v1l-4 3q1 0 1 1q0 2 1 3h3q0 5 -1.5 7.5t-3.5 5.5h3q7 -7 23 -9v-5zM952 812q3 -4 -1 -8v1q-3 2 -1 4zM1666 807h2v-2h-2v2zM1671 759q-1 -6 -3 -8l-3 1.5t-5 0.5v-3 q-2 -1 -4 -1q-1 0 -1 -1q-1 -1 -2 -1q-2 2 -2.5 2t-0.5 4h-7v-3h2l3 -2q1 -2 -1 -14h-2v2q-2 1 -5.5 5.5t-5.5 6.5q6 4 8 8.5t11 5.5q2 2 5 2h6v4q2 5 5 5t4 6q4 5 1 11t-4 11q1 1 4 1q2 -3 5 -5t5 -5q2 -4 0 -7t0 -7q1 -4 3 -8t2 -9h-1v-1q-5 2 -8 0t-9 -1zM949 788 q-2 2 -2 5v6q0 1 1 1q3 0 5 1v-2q2 -3 0 -11h-4zM1000 796q1 -1 1 -2h-1v2zM918 793q2 -2 0 -4h-1v2h-1v1q1 1 2 1zM1035 764v-2q-2 1 -1.5 1t-0.5 1h2zM1035 762q4 0 5 -1zM1092 762v-1h-2q0 -1 -5 -3v1h-2v1q1 0 1.5 0.5t1.5 0.5t1 1h5zM1040 761q5 0 6 -1q-5 0 -6 1z M1657 759v-5h4q0 3 -1 4v1h-3zM1652 757v-4h3v4h-3zM1618 750v-2q-2 1 -1.5 1t-0.5 1h2zM1086 721q0 -4 1 -5h3q0 4 -1 5h-3zM1603 693q4 -1 3 -10l-3 -10v3q-4 1 -4 10q2 2 2.5 3.5t1.5 3.5zM1319 673v-3h4v3h-4zM1617 648q0 -4 1.5 -7t0.5 -5q0 -3 -2 -4.5t-3 -6.5 q3 0 5 -2q-2 -2 -1.5 -1.5t-0.5 -2.5q5 0 6.5 -0.5t5.5 -1.5v-3h3v-5h-1q-6 8 -15 8q-1 -1 -2 -5l3 -4h-3v2q-5 6 -2.5 6.5t0.5 5.5h-2q-4 4 -5 12q3 2 2.5 7t1.5 8q1 -1 8 -1zM1447 610q1 -4 0 -7v7zM1215 609q1 -1 2 -1h1q-2 0 -3 1zM1629 608h2v-3h-2v3zM1636 608 q1 -1 2 -1h1q2 -2 2.5 -4.5t1.5 -4.5q-3 -2 -2.5 -2.5t-1.5 -3.5v3q-3 2 -3 5.5v7.5zM1621 602q1 -1 6 -1v-4q2 0 3 0.5t3 0.5q0 -5 1 -6l3 -3h-6q-1 -3 -0.5 -2.5t-1.5 -1.5q-2 2 -2 2.5t-1 2.5q1 1 1 5h-6v7zM1605 596q1 0 1.5 -0.5t2.5 -0.5v-1h-4v2zM1644 571 q0 -2 0.5 -5t0.5 -5h-1v2q-6 2 -7 6q-1 1 -1 7q-5 -1 -5.5 -1.5t-5.5 0.5v2q5 1 4 2t1 2t4.5 0t4.5 0v3h5q-1 1 -1 7h1l2 -1q1 -6 2.5 -10.5t1.5 -9.5h-3q-1 1 -3 1zM1373 589q10 -7 10 -21q-2 -2 -8 -4q0 2 -0.5 2.5t-0.5 1.5q-3 4 -2 9.5t1 11.5zM1624 575q1 -1 1 -4h-1v4 zM1602 557q0 -3 1 -4h-4q0 -11 1 -14t6 -10q-7 0 -8 -1q0 -11 -2.5 -11t-4.5 -5q-1 -2 -0.5 -6t-0.5 -7l-10 -3q0 4 -1 5q-5 0 -12 0.5t-11 3.5q-2 2 -1.5 5t-1.5 5q-1 1 -3 1q-2 3 -2 7.5v9.5l3 3q2 -2 10 -2v6q2 1 5.5 1.5t5.5 2.5q5 4 5 7.5t8 4.5v4q4 2 5 5t3 6l3 -3 l9 -10q-2 0 -3 -1zM1529 503q-1 -5 -1 -9v-9q-6 0 -7 1q-11 4 -15.5 14.5t-10.5 20.5l-4 4t-3 4q-1 1 -1 7q-2 1 -2.5 1.5t-2.5 1.5q-2 2 -2 3.5t-2 3.5q-3 4 -7 6t-5 9h1q1 -3 10 -3q6 -8 13.5 -13l16.5 -11l9 -10l-1.5 -3t-0.5 -4q3 0 5 -2q3 -3 2 -4t4 -3q2 3 2 3.5 t2 -1.5q3 -2 5 -7h-5zM1334 540v-1q-1 0 -2 1h2zM1660 526q0 -3 0.5 -4t0.5 -3h-4v2q2 2 1.5 6.5t1.5 7.5q2 -2 2.5 -2t2.5 -1q-2 -2 -2 -3t1 -3h-4zM1619 532q13 -4 22 0v-3l-3 -2q-3 -2 -10.5 -1t-13.5 1v1h2zM1521 530v-1l-3 1h3zM1097 506q0 5 1.5 8t2.5 9q-1 1 -4 1 q0 1 -1 1q-2 0 -3 1q-2 -2 -3.5 -2.5t-2.5 -3.5q-2 -2 -1.5 -6.5t0.5 -7.5h11zM1627 492h-4q-1 5 -2.5 6.5t-1.5 7.5h-3v-3q-2 -2 -1.5 -8t-1.5 -9h-3v14h-4q0 3 2.5 12t4.5 11q0 -9 7 -9q3 3 12 5q0 -2 0.5 -3t0.5 -3h-2q-2 2 -1.5 1.5t-2.5 0.5q-2 -2 -3 -2.5t-1 -5.5 q2 -2 5 -8t3 -11q0 -1 -1 -1t-1.5 -0.5t-1.5 -0.5v6zM1679 522v-1q-1 1 -2 1h2zM1788 454q4 0 5 -1v-1h-4q-2 2 -6.5 1.5t-7.5 1.5q-7 4 -7 10t-13 7q-1 -1 -2 -1q-2 -6 -5 -8t-12 -2q-2 4 -4 5.5t-9 1.5q-1 -1 -5 -1v2q3 2 4 4t1 7q-2 2 -3 8q-4 1 -9 2.5t-9 3.5l-5 5 q-3 0 -4 -1t-4 -2q0 5 -0.5 5.5t-2.5 3.5h5v3q-9 2 -13 8q7 2 9 2.5t10 -1.5q2 -5 2 -10.5t7 -6.5q2 4 6 6.5t7 6.5q3 -2 10 -4.5t14.5 -5.5t14 -6t8.5 -5v-6q2 -2 5.5 -3t5.5 -4q-4 -1 -4 -6q3 -2 4 -6t4 -6h3l2 -3h2v-4zM1487 515l1 -2h-1v2zM1640 512q8 -2 5 -2 q-5 1 -5 2zM1539 505h3v-3h-3v3zM1663 503q7 1 12 -2v-1h-3q-3 2 -6 1l-6 -2q0 1 -0.5 1.5t-0.5 1.5zM1651 502q1 0 2 -0.5t2 -0.5v-2q-4 0 -4 0.5v2.5zM1808 495l1 -2h-1v2zM1802 494q2 -2 1.5 -1.5t0.5 -2.5v-1q0 -1 -0.5 -1t-0.5 -1q-5 -2 -10.5 -5.5t-9.5 4.5q8 -1 13 0 t6 8zM1070 493q0 -11 3 -16t6 -12h3q0 2 -1 7t-2 7l-5 2v12h-4zM1700 485v-5h-1v-1h-2q0 5 1 6h2zM1821 483l2 -2t2 -3h-2v1q-1 0 -1 1t-0.5 1t-0.5 2zM1528 482q6 0 14 -2q1 0 1 -1q0 -2 1 -3q7 -2 15 1t16 -2h-6q0 -2 1 -3q2 -2 6.5 -2.5t7.5 -2.5v-2h-2q-2 2 -8 1t-12 1 q-8 2 -20 4.5t-18 7.5h4v3zM1830 476h3v-2h-3v2zM1598 468q10 -2 9 -2v-1q-5 -1 -10.5 -2t-9.5 2q1 1 1 0.5t1 1.5q8 -2 9 1zM1833 465q0 1 2 3v-2l1 -1h-3zM1627 467q4 0 5 -1q-4 0 -5 1zM1611 466h10v-2h-10v2zM1652 466v-1h-2q-3 -3 -8.5 -6t-9.5 -5v2h1q2 4 5.5 5.5 t5.5 4.5h8zM1607 460q3 -2 4 -2.5t2 -3.5h-1q-2 2 -3.5 2.5t-3.5 2.5q1 1 2 1zM1793 460v-1l-3 1h3zM1097 459l2 -6h3v5h-1v1h-4zM1850 459v-1q-1 0 -2 1h2zM1852 458v-2q-2 1 -1.5 1t-0.5 1h2zM1100 452q0 -6 0.5 -12.5t0.5 -12.5h3v13t-1 12h-3zM1682 448l2 -2q-2 -2 -2 1 v1zM1673 447q1 0 1.5 -0.5t2.5 -0.5l-3 -1q-1 -1 -3 -1v2q1 1 2 1zM1807 446q2 0 3 -1q-2 0 -3 1zM1190 418q1 -11 -3.5 -23t-9.5 -22q-2 -5 -2.5 -10.5t-5.5 -8.5q-8 -3 -12 -2q-2 3 -5 10.5t-1 14.5q1 2 3.5 4.5t3.5 4.5v10t-1 10l1.5 3t1.5 4q6 1 11 4t8 7q2 2 1.5 3.5 t2.5 3.5q1 1 1.5 0.5t2.5 0.5q0 3 0.5 4.5t1.5 3.5l1 -2q2 -3 3 -9t2 -11h-5zM1705 430h2v-3h-2v3zM1883 421q2 -2 2 -4h-1v1q-1 1 -1 3zM1885 414q1 -1 1 -2h-1v2zM1959 410q-3 0 -4.5 -0.5t-3.5 -1.5v3l3 1.5t5 0.5v-3zM1947 406q0 -1 1 -2q0 -1 1 -1l-6 -3q-1 1 -1 4l1 2 h4zM1874 372h-4q-2 5 -6 7.5t-3 7.5zM2048 -508h-2048h2048z" />
<glyph unicode="&#x128;" horiz-adv-x="0" />
<glyph unicode="&#x12a;" horiz-adv-x="0" />
<glyph unicode="&#x12b;" horiz-adv-x="0" />
<glyph unicode="&#x12c;" horiz-adv-x="0" />
<glyph unicode="&#x12d;" horiz-adv-x="0" />
<glyph unicode="&#x12e;" horiz-adv-x="0" />
<glyph unicode="&#x12f;" horiz-adv-x="0" />
<glyph unicode="&#x130;" horiz-adv-x="0" />
<glyph unicode="&#x132;" horiz-adv-x="0" />
<glyph unicode="&#x133;" horiz-adv-x="0" />
<glyph unicode="&#x134;" d="M1231 856q9 -3 21.5 -1.5t21.5 1.5h98q26 0 53 -0.5t50 -1.5q17 0 35 1t32 -2h25h35t33 -3h35q25 -6 55.5 -4.5t53.5 -5.5q33 -11 52 -37.5t29 -61.5q4 -10 4 -18t3 -19q3 -12 2.5 -25t1.5 -24v-25q5 -20 5 -42v-46q0 -29 2 -60.5t-5 -55.5q-2 -7 -0.5 -15t1.5 -13 q0 -1 -2 -7t-2 -8v-25q-3 -11 -2.5 -24.5t-3.5 -25.5q-8 -26 -17.5 -50t-26.5 -41q-10 -10 -25 -16.5t-30 -11.5l-75 -3q-10 -2 -24 -2.5t-25 -0.5h-22q-8 -2 -20.5 -0.5t-22.5 -0.5t-23.5 -2h-24.5t-23 -1t-23 -1h-76q-8 -2 -18.5 -1.5t-20.5 0.5h-44t-44 1q-17 0 -36.5 -1 t-34.5 3q-11 3 -25 1t-25 1q-11 2 -25 0.5t-24 0.5h-29q-14 0 -32.5 1t-31.5 4q-11 0 -23 0.5t-23 0.5q-20 5 -36 12.5t-28 20.5q-12 12 -20 32t-15 37v10q-2 6 -3 14.5t-3 16.5v13q-2 6 -2.5 13.5t-2.5 13.5v23q-4 15 -5 33.5t-1 38.5t0.5 40t0.5 38q0 28 0.5 60.5 t6.5 52.5q2 8 1.5 17t1.5 17q0 7 0.5 13t0.5 13q2 8 4 15t4 13v8h3l3 15q9 22 25.5 40.5t38.5 27.5q12 5 26 6.5t29 2t30.5 1t29.5 3.5q9 2 19.5 0.5t18.5 0.5h29q14 0 32.5 0.5t32.5 2.5q8 2 21 -0.5t19 2.5zM948 749v-62h70v-376q12 -4 31.5 -2.5t34.5 1.5v377h71v60 q-12 5 -31 3.5t-34 -1.5h-142zM1390 749v-439h59v31h2q5 -9 14.5 -17.5t21.5 -13t25 -4t25 8.5q3 2 6 3.5t5 3.5q9 13 12.5 34.5t4.5 46t0 50.5t-1 47q0 17 1 35.5t-3 32.5v17q-3 13 -7 26.5t-13 20.5q-4 2 -7.5 4t-8.5 3q-11 4 -20.5 2.5t-18.5 -5t-16.5 -9t-12.5 -9.5 q-2 -3 -3.5 -6t-5.5 -5v142h-59zM240 746q1 -12 5 -23.5t7 -21.5q7 -19 11 -38t9 -36q4 -11 6 -27.5t8 -23.5l44 170h66q-1 -7 -3.5 -13t-4.5 -12q-5 -13 -8 -26t-7 -25q-5 -14 -7 -26t-7 -26q-11 -31 -21 -63.5t-19 -63.5v-181q-13 -5 -32.5 -3.5t-34.5 1.5v122 q0 15 2 29.5t-2 28.5q-5 21 -12.5 41t-15.5 39q-2 5 -1.5 8.5t-1.5 8.5q-5 17 -11 34l-12 34q-3 8 -4 15.5t-4 15.5q-5 15 -10.5 30.5t-9.5 31.5h70zM1727 423q2 -15 1.5 -34.5t-13.5 -24.5q-4 -4 -12.5 -5t-13.5 3q-10 3 -14 14t-5 26t-0.5 31t0.5 28q8 3 19 2.5t20 -0.5 h80q1 48 -1 87.5t-23 65.5q-4 5 -11 8t-13 6q-31 16 -64.5 7t-49.5 -32q-12 -18 -13.5 -45.5t-1.5 -57.5q0 -28 -1 -55.5t1.5 -51.5t10 -43t24.5 -30q7 -5 15 -8l16 -6q14 -5 30 -2.5t27 7.5q34 14 44.5 38t9.5 72h-62zM480 639q15 0 26.5 -3.5t21.5 -8.5q11 -7 19 -13.5 t15 -17.5q6 -11 8.5 -27t3.5 -34.5t0.5 -37.5t-0.5 -36v-63.5t-12 -52.5q-17 -27 -61 -41q-15 -5 -30.5 -0.5t-23.5 9.5q-21 11 -31.5 26.5t-14 36t-3.5 46v56.5v63.5t11 52.5q6 11 17 22t23 16q6 2 16 3t15 4zM1166 636v-236q0 -30 2.5 -56.5t22.5 -35.5q9 -4 19.5 -3 t20.5 4.5t18 8.5t12 9t7 9.5t10 7.5v-34h57v1h1v325h-58v-182q0 -5 0.5 -15t0.5 -20.5t-0.5 -19.5t-2.5 -12q-3 -11 -14.5 -19.5t-25.5 -8.5q-2 2 -1.5 1.5t-1.5 0.5q-8 14 -8 38v47v190h-59zM622 635h59v-174q0 -24 -1 -51t4 -48q2 -1 2.5 -1.5t3.5 -1.5q5 -3 11.5 -1 t13 6.5t11.5 10t6 8.5v249v1l1 2h59v-327h-59q-2 6 -1.5 15.5t0.5 17.5h-2q-8 -13 -22.5 -23t-29.5 -14q-11 -3 -20.5 -0.5t-17.5 4.5q-2 5 -6.5 8.5t-6.5 8.5q-4 8 -5.5 21.5t-1.5 29t1 30.5t1 26v203zM1492 585q3 -5 6 -9t5 -9q1 -13 1.5 -25t0.5 -25v-97q0 -17 -1.5 -35 t-14.5 -23q-3 -3 -9.5 -2.5t-13 2.5t-11.5 5t-6 6v201q5 2 8 5.5t8 5.5q2 2 5 1.5t5 1.5zM1670 512l2 51q1 4 3 7.5t3 8.5q12 7 16.5 7.5t20.5 -1.5l11 -12q5 -11 4 -29t-1 -32h-59zM480 585q-1 -1 -5 -1q-4 -5 -8 -8t-6 -8q-4 -9 -3.5 -22.5t0.5 -25.5v-99q0 -18 1 -36.5 t14 -23.5q5 -5 14 -3.5t14 3.5l6 8t5 9q3 10 2.5 23t-0.5 25v97q0 17 -1 35t-13 22q-4 4 -8.5 4.5t-11.5 0.5z" />
<glyph unicode="&#x135;" d="M332 691v-60q-13 0 -29 0.5t-22 -7.5q-5 -7 -4 -21.5t1 -24.5h54q0 -32 -6 -60h-48v-173h-71v173h-36v60h36q0 31 2 52.5t10.5 35t26 19.5t49.5 6h37zM1044 685v-112h2q3 3 11.5 5t18.5 3t20 0.5t16 -1.5q5 0 8.5 -0.5t8.5 -0.5q11 -3 21.5 -8t17.5 -14q11 -14 12 -37.5 t1 -49.5q0 -8 0.5 -17t-1.5 -16q-2 -8 -1 -16.5t-1 -16.5q-8 -26 -23.5 -38.5t-42.5 -20.5q-7 -2 -12.5 -1t-13.5 -1q-12 -3 -30 -2t-29 3t-28.5 2t-25.5 5q-2 4 -1.5 12t0.5 13v63v234zM1731 685v-208h1v1q5 5 7 10.5t6 10.5q9 14 18.5 27.5t17.5 27.5q2 3 7 13t7 11h78v-1 q-7 -8 -11.5 -17.5t-9.5 -17.5l-31 -47q-5 -8 -9 -16t-10 -14q3 -9 9.5 -17.5t11.5 -16.5q7 -11 12.5 -22.5t12.5 -22.5q7 -10 13.5 -20t11.5 -21h-78q-2 8 -7.5 15.5t-10.5 13.5q-6 11 -11 20.5t-12 20.5q-5 9 -11 18t-11 19h-1v-107h-73v328zM725 514q-9 0 -25 3 t-32.5 4.5t-29.5 -1t-16 -12.5q-4 -5 -4 -13v-16q0 -17 0.5 -34.5t3.5 -30.5q3 -2 5.5 -5t6.5 -5q21 -6 46.5 -0.5t44.5 5.5v-58q-1 0 -1 -1q-13 0 -21 -4q-8 -2 -15.5 -2t-15.5 -2h-20q-30 0 -53 8.5t-35 25.5q-8 11 -13 26t-5 34q0 27 1 48.5t6 38.5t15 29t29 20 q10 5 19.5 5t21.5 3q8 2 21 2t22 -2l44 -8v-58zM817 440q0 -17 4 -26q3 -2 6 -5t7 -5q5 -2 12 -2h15h25.5t23.5 2q20 5 32 5v-59q-12 0 -29 -5q-7 -2 -14.5 -1.5t-15.5 -1.5t-24 -1.5t-23 2.5q-11 2 -20 2.5t-17 4.5q-18 8 -29 19.5t-16 27t-6.5 36t-1.5 46.5q0 19 1.5 34.5 t9.5 28.5q10 17 30.5 26.5t44.5 12t48 -2.5t42 -18q22 -16 24.5 -49t2.5 -71h-132zM1293 581q42 1 69.5 -10.5t40.5 -40.5q5 -11 6 -25t1 -30q0 -30 -2 -51.5t-9 -37t-21 -25.5t-37 -16q-9 -2 -22 -3t-22 1h-13q-8 2 -16 3t-15 4q-17 7 -27.5 17t-16 24.5t-7 33.5t-1.5 43 q0 17 0.5 32.5t5.5 27.5q15 34 54 48q6 2 16.5 2t15.5 3zM1522 581q45 1 72.5 -11.5t38.5 -44.5q5 -11 5.5 -24.5t0.5 -29.5q0 -27 -2 -48t-9 -36t-20 -25t-34 -16q-9 -2 -23 -3.5t-25 0.5h-14q-9 2 -18.5 4t-17.5 6q-16 7 -25 17.5t-13.5 25.5t-6 33.5t-1.5 41.5q0 17 1 32 t6 27q7 17 21 28.5t32 17.5q5 2 16 2t16 3zM355 578q19 0 39.5 0.5t40 -0.5t36.5 -5t28 -12q17 -12 20 -36.5t3 -54.5v-126h-60q0 2 -0.5 6t-1.5 9q-8 -2 -17.5 -7t-18.5 -7q-34 -10 -59 1.5t-35 34.5q-2 5 -3 11.5t-1 12.5q0 29 8.5 44t25 21t39 6.5t51.5 0.5q1 2 1 6v8 q-2 2 -2.5 9.5t-1.5 9.5q-16 9 -44 8.5t-53 -0.5l2 30t3 30zM876 489q1 11 -0.5 20t-7.5 13q-4 3 -7.5 3t-9.5 1q-19 5 -26.5 -6.5t-7.5 -30.5h59zM1044 402q15 -2 33 -1t26 10q3 5 5 20t2 32t-1.5 31.5t-5.5 19.5q-5 6 -13 7t-16.5 -0.5t-16.5 -4.5t-13 -4v-110zM1298 521 q-8 -5 -14 -5.5t-10 -10.5q-3 -8 -2.5 -20t0.5 -23q0 -23 1.5 -37.5t18.5 -20.5q3 -1 10 -2.5t12 0.5q22 6 23 22.5t1 43.5q0 8 0.5 18.5t-2.5 17.5q-8 18 -38 17zM1528 521q-8 -5 -13.5 -5.5t-10.5 -8.5q-4 -8 -3 -20t1 -22q0 -13 -0.5 -23t1 -17.5t6.5 -13t16 -8.5 q2 -1 8 -1.5t10 0.5q11 3 16 9t6.5 15t1 20t-0.5 24q0 9 0.5 20t-2.5 17q-8 14 -36 14zM451 428h-25.5t-23.5 -2l-4 -5q-1 -8 0 -15.5t9 -9.5q8 -6 22.5 -2t21.5 9v25z" />
<glyph unicode="&#x136;" d="M886 689q12 0 22.5 -5.5t17 -14t7.5 -19.5t-5 -23q-9 -19 -35 -24q-10 -2 -19.5 3t-15.5 13.5t-8.5 19.5t1.5 22q3 8 9.5 14.5t13.5 10.5q3 2 6.5 1.5t5.5 1.5zM353 603q12 0 25 0.5t21 -4.5q8 -4 14.5 -13t8.5 -18q3 -12 -1.5 -21t-9.5 -15q-11 -13 -25 -14t-37 -1h-93 q0 -28 1.5 -49t20.5 -31q9 -5 24 -5.5t31.5 0.5t32.5 1.5t27 -2.5q14 -5 24 -22q4 -7 4.5 -16.5t-2.5 -17.5q-6 -16 -16 -22q-11 -8 -33 -7.5t-41 0.5q-14 0 -29 -0.5t-27 2.5q-65 16 -91 75q-4 8 -5.5 17.5t-3.5 19.5v151v32.5t6 25.5q13 19 36 18.5t36 -19.5 q7 -10 6.5 -29t-1.5 -36h97zM990 688h17t14 -4q11 -8 15.5 -20.5t5.5 -28t0 -33.5t-1 -36q6 -2 14 -1.5t15 0.5h60q3 -2 6 -2.5t6 -2.5l13 -13q10 -13 5 -33q-4 -13 -9.5 -20.5t-17.5 -12.5q-3 0 -6 -0.5t-5 -0.5q-15 -3 -36.5 -2t-38.5 1q-1 -1 -1 -11q1 -1 1 -8 q5 -18 16 -23q9 -5 22.5 -5h27.5q5 0 9.5 -0.5t9.5 -0.5q14 -5 21.5 -15.5t8.5 -22.5t-5 -24t-18 -19q-6 -4 -15 -4h-18q-19 0 -36 1.5t-30 6.5q-16 7 -28.5 14.5t-21.5 19.5q-18 26 -26 72t-8 90q0 20 -1 42.5t3 40.5q2 8 1.5 15.5t1.5 14.5q3 5 8.5 11.5t10.5 9.5q2 2 5 2 t5 2zM1211 688q21 0 32.5 -7t17.5 -21q0 -8 0.5 -15t0.5 -14v-64q5 -2 12.5 -2h14.5h60l9 -3q5 -2 10 -6.5t9 -9.5q6 -9 6 -18.5t-3 -18.5t-9 -16t-13 -10t-18.5 -4t-24 -1t-25.5 0.5t-23 0.5q-1 -1 -1 -11q2 -3 1.5 -5.5t0.5 -6.5q5 -14 16 -19q8 -5 22 -4.5t26 0.5h14 q22 -6 32 -24t1.5 -35.5t-20.5 -23.5q-5 -2 -13 -3.5t-17.5 -1.5t-18.5 0.5t-15 1.5q-5 0 -9 0.5t-9 0.5q-23 4 -40 15q-17 10 -28 28t-18 41t-10 49t-3 52q0 23 -2 49t3 48q2 11 1 20t3 17q2 3 8 9t9 8t6 2t5 2zM527 437q5 -2 9 -5t9 -5q12 -3 20 1t13 9q13 10 14 31.5 t0 44t2 42.5t21 28q15 8 29 0q18 -7 25 -23q2 -6 2.5 -16t0.5 -22t-0.5 -23.5t-0.5 -19.5v-19l4 -15q2 -2 3.5 -3t2.5 -5q5 -2 9 -5t10 -5q8 -2 15.5 0.5t12.5 5.5q6 5 11 9.5t7 13.5q0 20 0.5 39t0.5 38v18t4 15q4 8 12.5 13t18 6.5t18.5 -1.5t15 -11q6 -7 8 -18t2.5 -24 t0 -26.5t-0.5 -25.5q0 -48 -17.5 -77t-48.5 -45q-16 -8 -34.5 -10t-36 1t-32.5 10.5t-24 17.5q-1 -1 -2 -1q-5 -2 -7.5 -5.5t-5.5 -5.5q-8 -5 -18 -8.5t-21 -7.5q-16 -5 -34.5 -2t-29.5 8q-58 25 -75 88q-2 10 -1.5 21t0.5 22t-0.5 24t0 25t2.5 22.5t7 16.5q12 15 33 12.5 t30 -17.5q4 -6 5 -16.5t1 -22.5t-0.5 -24t-0.5 -20v-19q2 -5 2.5 -11t3.5 -11q2 -2 3.5 -3t2.5 -4zM1500 583q55 1 88.5 -14t50.5 -52q5 -11 9.5 -28.5t-3.5 -31.5q-6 -11 -20 -13t-31 -2h-110q-2 -2 -2 -3q4 -5 6.5 -10t7.5 -8h4v-2q5 -2 10.5 -2t10.5 -2q12 -3 22.5 -1 t19.5 5.5t18 7.5t18 7q15 4 27.5 -6.5t9.5 -24.5q-5 -24 -28 -37.5t-52 -18t-59 0.5t-49 19q-34 25 -48 68q-5 15 -4.5 31.5t4.5 32.5t10 28.5t13 19.5q19 19 43 29q6 2 17.5 3.5t16.5 3.5zM1848 583q13 -6 21 -20q4 -6 5 -17.5t-3 -19.5q-7 -16 -31 -22h-20 q-25 0 -43.5 -0.5t-29.5 -14.5q-5 -6 -6.5 -16.5t-1.5 -23t1 -25.5t1 -23v-22q-6 -22 -25 -29q-6 -3 -14.5 -4t-15.5 3q-20 10 -21.5 30t-1.5 49q0 14 -1 29.5t2 28.5q7 26 20.5 48.5t33.5 33.5q8 5 15 8t14 5q4 1 7 0.5t6 1.5h88zM888 572q17 0 27 -8.5t15 -19.5 q3 -7 2.5 -16.5t-0.5 -18.5v-71q0 -18 1 -40t-6 -33q-10 -15 -29 -19q-11 -2 -18.5 1t-12.5 8q-5 4 -9 7.5t-7 9.5q-3 7 -3 16.5v19.5q0 17 0.5 35t0.5 36q0 14 -1 34.5t3 31.5q8 16 21 23q4 2 8.5 2t7.5 2zM1516 523q-9 -5 -19.5 -7t-11.5 -15q-1 -1 -1 -3q5 -2 11.5 -1.5 t12.5 0.5h56q0 1 0.5 1.5t0.5 2.5q-2 2 -1.5 4t-1.5 4q-7 8 -19.5 11t-26.5 3z" />
<glyph unicode="&#x137;" d="M170 483h292v-178q0 -23 -1 -48t7 -42q12 -26 34 -40t46 -15t47.5 10.5t38.5 35.5q10 16 9 42.5t-1 50.5v207v233v72t9 65q15 48 35.5 86.5t46.5 74.5q7 10 21 21t25 19q5 4 10 10.5t11 10.5q31 21 67 36.5t78 27.5l41 3q27 7 61 4t66.5 -11t60 -19.5t42.5 -20.5 q67 -43 111.5 -101.5t69.5 -143.5l3 -35q8 -32 7 -76t-1 -84q-3 -2 -2 -1.5t-1 -1.5q-23 -2 -44 -10.5t-41 -15.5l-41 -9q-3 -1 -9.5 -4t-15 -6t-16 -4.5t-11.5 0.5q-16 5 -34 16.5t-33 18.5q-3 1 -9.5 3t-14 5t-13.5 5.5t-7 3.5v120q-3 4 -3 9t-3 11q-2 7 -7.5 12.5 t-9.5 10.5l-3 9q-19 15 -40 20t-41 1.5t-37 -15t-28 -29.5q-9 -15 -8.5 -39.5t0.5 -48.5v-183v-245l-3 -122q-11 -38 -21 -74.5t-29 -65.5q-5 -8 -13 -16t-13 -16v-6l-12 -9v-6q-7 -6 -14 -12.5t-15 -13.5q-4 -5 -7 -8.5t-7 -8.5q-58 -44 -134 -73q-26 -10 -57 -14 t-62.5 -2.5t-62 7.5t-54.5 15l-27 6q-72 31 -125 87t-84 128l-21 76l-3 102v198zM1583 483h295v-198q0 -29 0.5 -61t-6.5 -56q-32 -111 -94 -180t-168 -105q-11 -4 -26.5 -8.5t-33 -7.5t-35 -4t-31.5 2h-38q-20 5 -42.5 9t-41.5 12q-40 17 -71 38.5t-63 45.5l-15 21 q-29 31 -50.5 68.5t-36.5 82.5q-5 14 -6.5 30.5t-5.5 30.5v277h6q8 -8 20.5 -11.5t23.5 -8.5q13 -7 30 -17.5t31 -14.5q12 -4 28 3t24 11q19 8 35.5 9.5t34.5 8.5l28 10t31 7v-180v-42t2.5 -34.5t9 -27.5t20.5 -22q11 -8 29.5 -19t43.5 -4q23 7 42 22t27 36q7 17 5 42.5 t-2 45.5v189z" />
<glyph unicode="&#x138;" d="M632 1020v-604v-145q0 -15 0.5 -31t-9.5 -22q-6 -4 -16.5 -3.5t-20.5 0.5h-86h-328q0 112 -0.5 221t-0.5 221v104q0 13 0.5 24.5t8.5 16.5q4 3 14 4t22 1t23.5 -0.5t18.5 -0.5h202v158v33t13 20q4 4 19 3.5t23 -0.5h117zM855 1020v-81v-18.5t-3 -16.5q-5 -10 -18.5 -10.5 t-29.5 -0.5h-122v88q0 13 1.5 23t11.5 13q2 2 7.5 2.5t12 0.5h13h10.5h117zM1370 807q0 -135 0.5 -264t0.5 -264v-164q0 -23 0.5 -48.5t-4.5 -44.5q-3 -2 -5.5 -4.5t-7.5 -3.5h-128q-76 0 -155.5 -1t-160.5 -1q0 29 -1 62.5t5 58.5l13 9h76h196v74q-72 0 -146.5 -0.5 t-141.5 -0.5q-3 9 -2 26t1 28v120v402q0 2 0.5 2.5t0.5 1.5t1 2q3 2 5.5 4.5t6.5 4.5q7 3 18.5 2t20.5 -1h85h322zM1876 807v-602v-140q0 -16 -0.5 -30.5t-12.5 -18.5q-4 -4 -14 -3t-17 1h-84h-332v82q0 6 -1 16.5t2 14.5q2 7 6 8.5t8 6.5h273q2 4 1.5 10.5t-0.5 11.5v47 q-1 1 -1 5h-288q0 112 -0.5 223.5t-0.5 223.5v103q0 13 0.5 24t10.5 14q5 4 14 3.5t17 -0.5h83h336zM855 806v-380v-125v-37.5t-2 -36.5l-6 -7q-2 -2 -3 -2t-3 -2q-38 -2 -78 -1.5t-79 0.5l-2 391v119v64l4 8q3 2 6 5t7 4h49h107zM1076 346h56t53 3q2 4 5.5 6.5t5.5 7.5v88 v230h-78h-16t-14 -3q-5 -2 -7 -5.5t-5 -7.5v-319zM1582 348q26 0 56.5 -1.5t53.5 3.5q2 4 5 7t5 8v88v228q-26 0 -54.5 0.5t-54.5 -2.5q-2 -3 -5.5 -5.5t-5.5 -6.5q-2 -6 -1.5 -14t0.5 -15v-63q0 -57 0.5 -113.5t0.5 -113.5zM338 341q27 0 58 -0.5t54 4.5q2 4 4.5 6.5 t4.5 7.5v87v230h-73h-18t-16 -2q-5 -2 -7.5 -6t-6.5 -8v-319z" />
<glyph unicode="&#x139;" d="M1007 1370q11 -3 27 -0.5t32 -1.5h15q12 -2 24 -2t24 -3q29 -7 57 -10.5t54 -11.5q37 -12 71.5 -23.5t67.5 -26.5q20 -9 39.5 -19.5t38.5 -23.5q13 -8 25 -15t24 -15q58 -42 110 -92.5t94 -107.5q43 -60 72.5 -122t55.5 -140q5 -14 7 -28t7 -29q5 -14 6 -29t5 -29l2 -22 q3 -12 3 -26.5t3 -28.5v-27q1 -7 -0.5 -16.5t0.5 -17.5q2 -10 0.5 -27t-3.5 -28v-11q-3 -11 -3 -22.5t-3 -22.5q-3 -12 -4 -24t-4 -24l-23 -82q-28 -99 -75 -180.5t-111 -147.5t-144 -117.5t-173 -90.5q-31 -13 -64 -21t-67 -18q-17 -2 -34 -5.5t-34 -5.5q-16 -2 -31.5 -3 t-31.5 -3q-7 -2 -14.5 -0.5t-13.5 -0.5q-7 -2 -18 -1t-17 2h-26q-14 3 -28.5 3t-27.5 3l-21 2q-18 5 -36 6.5t-35 6.5q-49 14 -93 29t-86 36q-22 11 -43.5 22t-41.5 24q-88 54 -153.5 124t-119.5 158q-11 18 -22 38t-20 40q-23 51 -39 100q-3 9 -5 17.5t-5 18.5 q-8 26 -12 55t-11 58q-3 12 -2.5 24.5t-1.5 24.5q-2 9 -1 20.5t-1 22.5q-2 6 -2 16.5t2 17.5v27q4 17 3.5 35.5t3.5 34.5q1 2 1 14q3 11 4.5 23.5t4.5 23.5q9 32 16 62t19 59q14 34 28.5 67t33.5 63q40 65 85.5 119.5t99 100t116.5 83t138 68.5q29 12 61 19.5t64 16.5 q17 2 32.5 5t32.5 5q16 2 31.5 3t32.5 3q6 2 14.5 0t13.5 1zM554 877q1 -5 3 -9.5t4 -9.5q5 -13 8 -24.5t8 -23.5q14 -34 23.5 -68t22.5 -68q6 -16 10 -32.5t11 -32.5q11 -26 18 -53.5t18 -53.5q25 -61 42.5 -123t40.5 -122q14 -38 25 -75.5t25 -74.5q4 -10 6.5 -19t6.5 -18 q2 -4 2.5 -9t3.5 -7l166 498q0 5 -3 10.5t-5 10.5q-5 14 -10 28.5t-11 28.5q-3 8 -4 14.5t-5 14.5q-14 32 -24 65t-24 65q-6 14 -11 29.5t-11 30.5q-2 7 -5.5 13.5t-4.5 14.5q-15 0 -32 1.5t-31 4.5q-11 2 -19.5 2.5t-16.5 5.5q-7 5 -9 13t-0.5 16.5t6 15.5t10.5 10 q3 2 13.5 2.5t22.5 0t23 -2t16 -2.5q8 0 16 -0.5t16 -0.5q9 -2 21 -2.5t22 -0.5h20q9 -2 21 -1.5t23 0.5q13 0 27.5 -0.5t25.5 1.5l80 3q14 3 29 2t29 2q8 2 17.5 2t15.5 -3q7 -3 11.5 -10t5 -15.5t-2 -16.5t-9.5 -13q-8 -5 -16.5 -5.5t-19.5 -2.5q-14 -3 -32.5 -4t-34.5 -2 q0 -6 2.5 -11.5t4.5 -10.5q5 -11 7.5 -21.5t6.5 -21.5q13 -34 23.5 -68t22.5 -67q9 -23 14 -45.5t15 -45.5q8 -21 15 -43t15 -44q18 -51 34 -101.5t35 -101.5q15 -42 28 -83t28 -83q5 -14 8.5 -26.5t8.5 -25.5q2 -5 3 -10.5t4 -9.5q1 13 6 26.5t9 24.5q9 26 15.5 52t15.5 52 q8 23 13.5 46t13.5 46q7 20 14.5 40.5t14.5 40.5q6 17 9.5 33t8.5 33q5 19 6.5 39t6.5 40v17q1 8 0.5 20t-1.5 24t-3 23.5t-4 18.5q-6 22 -11.5 41.5t-14.5 38.5q-17 38 -39 72t-41 71q-5 9 -10.5 23.5t-9.5 31t-5 33.5t4 32q5 18 12.5 33t15.5 27q11 15 29 26t38 18l25 3 q5 1 8.5 -0.5t6.5 0.5q-8 2 -15 11t-14 14l-62 46q-45 34 -97 56t-110 41q-28 9 -57.5 13.5t-59.5 11.5q-12 2 -24 2.5t-24 2.5h-17q-5 1 -14.5 1.5t-20.5 0.5t-20.5 -0.5t-14.5 -1.5q-10 -1 -19.5 -1.5t-20.5 -0.5q-23 -5 -46 -7.5t-43 -7.5q-8 -2 -14.5 -3t-13.5 -3 q-21 -7 -42 -13t-41 -14q-42 -17 -82 -37t-75 -45q-14 -10 -27 -20.5t-27 -20.5l-10 -10q-18 -14 -35.5 -31t-31.5 -35q-5 -4 -8.5 -7.5l-7.5 -7.5q-14 -20 -30 -38.5t-28 -40.5h44q3 -2 7 -1t7 1q10 0 21 -0.5t19 1.5h25q23 5 50 3.5t50 3.5q8 2 24 2t22 -3q7 -4 11 -11.5 t5 -16t-2 -16t-10 -12.5q-8 -5 -16.5 -5t-18.5 -2q-15 -3 -33 -4t-35 -2zM1692 882q2 -7 2 -15.5t2 -15.5v-20q2 -9 2 -23.5t-2 -23.5v-18q-1 -5 -1 -11t-2 -11v-8.5t-1 -8.5q-4 -16 -5 -32t-6 -31q-14 -45 -26 -85.5t-29 -80.5q-5 -12 -7.5 -24t-7.5 -24 q-23 -57 -40 -114.5t-41 -114.5q-8 -19 -12.5 -37.5t-12.5 -37.5q-14 -32 -23 -64.5t-22 -63.5q-2 -6 -3.5 -11.5t-3.5 -11.5q-8 -19 -13.5 -38.5t-13.5 -38.5q-6 -14 -11 -28.5t-8 -28.5q4 3 7.5 4.5t7.5 4.5q11 7 21.5 13.5t21.5 14.5q21 15 40 32t39 33q2 2 4.5 5t5.5 5 q6 7 12.5 12.5t11.5 13.5l18 18l36 46q11 14 21.5 28.5t19.5 29.5q24 38 43 81t34 89q7 21 11.5 43t10.5 45q3 11 3 21.5t3 21.5q2 11 2.5 24.5t2.5 25.5v19q2 10 2 28.5t-2 28.5v16.5t-1 16.5q-2 7 -1 14t-1 15q-4 14 -5.5 30t-5.5 30q-4 13 -5 25t-5 24q-10 29 -19 56 t-21 53q-2 4 -5.5 12.5t-7.5 17t-7.5 15.5t-6.5 9zM323 828q-2 -8 -6 -15.5t-7 -15.5q-6 -14 -10.5 -29t-9.5 -29q-8 -23 -12 -46.5t-10 -47.5q-2 -8 -2.5 -16.5t-2.5 -16.5q0 -5 -0.5 -9t-0.5 -9q-4 -18 -4 -38.5v-40.5q0 -54 6 -101.5t20 -89.5l7 -30q8 -21 15 -41.5 t16 -40.5q55 -127 148 -223.5t217 -154.5q-19 51 -37 102.5t-39 102.5q-11 28 -20 55.5t-20 54.5q-4 10 -6 19.5t-7 19.5q-16 32 -25.5 66t-23.5 66q-5 11 -7 20.5t-6 19.5q-22 52 -39.5 105.5t-38.5 104.5q-5 10 -7 19.5t-7 20.5q-16 37 -28.5 75t-27.5 75q-5 13 -9.5 26 t-9.5 26q-2 4 -2.5 9t-3.5 7zM1034 450q-1 -7 -4.5 -14t-5.5 -13q-6 -14 -10 -29t-10 -29q-3 -8 -4 -14.5t-4 -13.5q-12 -29 -21 -59t-21 -59q-8 -21 -14 -43t-15 -44q-5 -14 -9.5 -28.5t-10.5 -28.5q-20 -51 -35.5 -103t-36.5 -103q-8 -20 -13.5 -41t-13.5 -41 q12 -2 24 -5.5t23 -6.5q17 -5 35 -6.5t36 -6.5l49 -4h18q5 -1 13 -1.5t17 0t17 1t14 0.5q11 0 20.5 0.5t20.5 1.5q22 5 44.5 6.5t42.5 7.5q17 5 33.5 8.5t32.5 8.5q5 2 15.5 4t12.5 6q-3 3 -6 10t-5.5 15l-5 16t-4.5 13q-12 30 -22 61t-23 62q-23 57 -41.5 115t-43.5 115 q-8 17 -12.5 34.5t-11.5 34.5q-10 25 -18 50.5t-19 50.5q-8 17 -15 35.5t-12 36.5h-1z" />
<glyph unicode="&#x13a;" d="M169 632h110v-11q-10 1 -18.5 -1t-10.5 -10q-4 -5 -1 -15t5 -15q8 -21 14 -43.5t15 -42.5h4q2 8 5 16l6 16q7 20 12.5 38t12.5 37q4 10 5.5 20.5t15.5 10.5q2 -9 6 -18t7 -18q7 -17 12 -35t11 -35q3 -8 5 -20t8 -15v1q5 6 6 14t4 15l7.5 20t9 25t7 25.5t1.5 22.5 q-10 7 -28 7v11h93v-11q-9 0 -17 -0.5t-14 -4.5q-10 -7 -13.5 -20.5t-8.5 -25.5q-10 -24 -17.5 -50t-17.5 -50q-5 -12 -8 -23.5t-7 -22.5q0 -3 -0.5 -5.5t-0.5 -5.5q-2 -2 -4.5 -2t-5.5 -1q-1 1 -1 2q-2 15 -8.5 30.5t-11.5 28.5q-8 22 -13.5 44t-14.5 42h-2 q-13 -36 -25 -72.5t-24 -72.5q-2 -2 -8 -2q-2 16 -8.5 31t-11.5 29q-8 24 -15 47.5t-15 46.5q-5 14 -9 30.5t-18 21.5q-8 5 -25 5v11zM1044 632q24 0 49.5 1t49.5 -0.5t43 -7.5t29 -19q2 -5 5 -10t5 -12q2 -8 0.5 -17t-3.5 -14q-11 -29 -36 -36t-67 -7q0 -16 -0.5 -30.5 t2.5 -25.5t11.5 -17.5t25.5 -6.5v-11h-114v11q9 0 15 1.5t13 3.5q3 5 5.5 9.5t4.5 10.5q0 12 0.5 24.5t0.5 25.5q0 19 1.5 40.5t-2.5 38.5q-3 12 -3 20.5t-11 12.5q-7 6 -24 4v11zM1119 530q17 -1 33 0t24 11q6 9 8 20t0 21.5t-7.5 18.5t-15.5 11q-8 3 -20 2t-22 -1v-83z M543 589q42 1 68 -12.5t40 -41.5q4 -7 5 -15t1 -18q0 -38 -22.5 -59t-51.5 -29q-27 -7 -53 1t-44 26t-25 42t4 50q7 15 20.5 28t28.5 20q6 3 14.5 3.5t14.5 4.5zM1707 531h-13q-1 26 -18 35t-40 3q-4 -5 -6 -8t-3 -12q2 -2 2 -3.5t1 -3.5q5 -3 10.5 -7.5t10.5 -7.5 q17 -9 34.5 -15t28.5 -21q7 -11 6.5 -28t-8.5 -28q-16 -23 -58 -22q-5 0 -11.5 2.5t-12.5 4.5l-14 7q-5 -5 -5.5 -9.5t-12.5 -4.5v68h11q1 0 1 -0.5t1 -0.5q1 -29 22.5 -41t48.5 -5l9 11q2 11 -1 15q-3 9 -14 16t-24.5 13.5t-26 13.5t-18.5 17q-7 9 -8.5 23.5t6.5 25.5 q12 14 38 20q14 4 25.5 -1t18.5 -10q1 -2 3 0q5 5 5.5 8.5t11.5 2.5v-58zM1857 589v-58h-12q-4 33 -34 40q-11 5 -18 -1q-8 0 -13 -11q-4 -7 0 -13q4 -9 12.5 -12.5t16.5 -7.5q17 -9 36 -18.5t25 -29.5q4 -14 -0.5 -27.5t-15.5 -23t-26 -14t-30 -0.5q-9 2 -16.5 7t-15.5 8 v-1q-5 -5 -5 -14h-11v68h11q0 -11 7 -22.5t17.5 -19.5t23.5 -10t25 6q3 2 5 5.5t4 5.5v13q-6 5 -10 10.5t-11 10.5q-18 10 -38 17t-30 26q-8 14 -4 30.5t14 23.5q7 5 20.5 11t27.5 1l17 -6q4 -3 12 -5q4 4 4 11h12zM664 584q19 0 44.5 0.5t48.5 -2t39.5 -10t18.5 -23.5 q5 -8 4 -16t-4.5 -15.5t-9 -13t-9.5 -8.5q-6 -3 -12 -3.5t-8 -8.5q4 -3 6 -6t5 -7q11 -11 21.5 -20.5t27.5 -16.5q5 -2 14.5 -4t15.5 3q11 3 12 15t1 26q0 8 0.5 20t0.5 24.5t-0.5 23.5t-2.5 17q-5 8 -11 12l-19 2v11q34 0 65 0.5t56 -4.5t42 -19t24 -42q2 -9 2.5 -20.5 t-2.5 -21.5q-5 -19 -19 -31.5t-31 -19.5q-15 -6 -34.5 -6.5t-40.5 -0.5h-116q-9 14 -20.5 27t-22.5 25q-5 5 -7 10t-11 6q-1 -14 -1 -31.5t10 -21.5q4 -3 9.5 -3.5t13.5 -0.5v-11h-100v11q5 -1 10.5 -0.5t8.5 3.5q11 3 12 15t1 26q0 8 0.5 21l1 26t-0.5 24.5t-4 17.5l-10 8 l-19 2v11zM1411 584h146l2 -47h-9q-1 8 -4 15.5t-9 9.5q-8 6 -26.5 5.5t-33.5 -0.5v-53q12 0 23.5 1t14.5 9q2 3 2.5 8t0.5 10h11v-72q-1 -1 -11 -1q0 7 -1 11t-2 9q-14 9 -38 9q0 -34 6 -56q10 -6 23 -8t24 1t19.5 10.5t9.5 20.5h10l-3 -47h-202q-6 12 -20.5 26.5 t-23.5 25.5q-4 6 -6.5 10.5t-11.5 5.5q0 -27 3 -48l10 -8q5 0 9.5 -0.5t9.5 -0.5v-11h-98v11q15 0 23 4q5 7 7 25t2 38.5t-1.5 40t-4.5 28.5q-5 3 -10.5 5t-15.5 2v9q7 2 19 2.5t25.5 0.5t26.5 -0.5t22 -0.5q6 -4 14.5 -3.5t14.5 -2.5q20 -8 28.5 -29t-7.5 -43 q-6 -6 -18.5 -10t-16.5 -9q12 -8 20 -18.5t17 -19.5t20.5 -14t31.5 -2q2 2 3 3.5l3 4.5q4 5 4 15v20v47t-4 41q-6 5 -11.5 7t-16.5 2v11zM547 573q-3 -2 -6.5 -2t-7.5 -2q-12 -6 -19.5 -17.5t-12.5 -24.5q-6 -17 -3.5 -36t12 -34.5t24.5 -23.5t34 -3q15 4 26.5 14t18 24 t7.5 31.5t-6 35.5q-8 20 -23.5 29t-43.5 9zM732 503q14 0 26.5 1.5t17.5 9.5q2 2 2 4.5t2 4.5q3 27 -8 36t-40 8v-64zM914 567q0 -13 -1 -31t-1 -36.5t1 -35t5 -25.5q16 -8 32 -4t27.5 15t17 27.5t1.5 34.5q-2 6 -1.5 11t-1.5 10q-10 22 -28 28.5t-51 5.5zM1302 503 q17 -1 31.5 2.5t16.5 17.5q5 6 2.5 16t-4.5 16q-6 4 -9.5 6t-8 3.5t-11 2t-17.5 0.5v-64z" />
<glyph unicode="&#x13b;" d="M1744 760h92q13 -4 22 -12h2v-2q1 0 1.5 -1t1.5 -1h2q11 -11 11 -32.5v-43.5v-182v-134q0 -20 -0.5 -32.5t-8.5 -24.5q-2 -2 -2 -5h-2q-4 -3 -7 -6.5t-8 -5.5q-11 -5 -27 -4.5t-31 0.5h-120h-178h-56q-20 7 -30 18q-2 2 -2 3.5t-1 3.5q-5 4 -6 9q-2 6 -1.5 15t0.5 17v76 v216v64q0 7 -0.5 15.5t1.5 14.5q4 8 10.5 16.5t14.5 12.5q3 2 7.5 2.5t6.5 2.5h308zM172 662h67v-230q7 -3 18 -2t19 1h81v-2q2 -2 1.5 -7t-0.5 -8q0 -11 0.5 -22t-1.5 -20q-3 -1 -8 -1h-10h-39h-128v291zM404 662q5 -1 10.5 -1h11.5q11 -5 19 -15.5t3 -25.5q0 -5 -1 -6 q-7 -15 -24 -19h-8q-12 -3 -25.5 5.5t-13.5 19.5q-2 2 -1.5 6t0.5 7q0 9 5.5 15.5t11.5 9.5q3 2 6.5 2t5.5 2zM705 662h66v-2q1 -2 1 -6v-7v-31v-119h1l12 15q7 11 14 21t15 19q1 1 1 2.5t1 2.5l3 2q1 1 0.5 2t1.5 3l4 4v2l3 2q2 5 3 5h80v-2q-4 -2 -7.5 -7t-5.5 -7h-2 q0 -1 -0.5 -1.5t-0.5 -1.5h-2q0 -1 -0.5 -2t-0.5 -2l-4 -2v-2q-1 0 -2 -1q-1 0 -1 -2q0 -1 -1 -1h-2v-3h-2q-2 -2 -2.5 -3.5t-2.5 -3.5q-2 0 -3 -1v-2l-4 -3v-2h-2q-2 -2 -2 -3t-2 -3l-6 -5v-1q0 -1 -2 -1q-1 0 -1 -1v-2q-4 -5 -10.5 -10t-7.5 -11q2 -2 3 -4t3 -4l4 -3 q2 -2 1.5 -3.5t1.5 -3.5h2q0 -3 2 -5l4 -4q1 -1 1 -4h2q0 1 2 -5l7 -6q0 -3 1 -4l3 -3v-2l3 -2v-2h2v-2q2 -2 3 -2v-2h2q0 -4 3 -7h2v-3l3 -2v-2q2 -2 3 -2l2 -5l3 -2v-2h2q1 -1 1 -3t2 -3h1v-3q4 -5 10 -11.5t8 -13.5h-82l-3 5q-2 2 -2 4t-1 4h-2v2q-1 2 -2 2.5t-2 1.5 q0 1 -0.5 2t-0.5 2h-2v3q-1 0 -3 2q0 2 -0.5 2.5t-0.5 2.5l-4 4q-1 1 -1 4h-2v3l-4 3q-2 2 -2 4.5t-2 4.5q-4 7 -9 14t-9 14l-1 -1q-3 -2 -5 -5l-4 -6h-2q0 -3 -1 -4h-2v-2q-1 0 -1 -1v-62q-1 -1 -1 -2q-5 -2 -11 -1.5t-11 0.5h-44v291zM1339 371q-14 0 -30 -0.5t-29 1.5v7 q-3 4 -2 12t-3 10q-2 -5 -5.5 -8t-6.5 -6v-2q-2 -2 -5 -2.5t-5 -2.5l-4 -4h-2q-1 -1 -1 -2q-5 0 -6 -1q-14 -5 -33 -5.5t-33 5.5q-20 9 -32 24.5t-21 35.5v4q-1 4 -2 9t-3 9q0 4 0.5 7.5t-0.5 7.5q0 5 0.5 13t1.5 13q2 5 1.5 9t1.5 9l8 16t10 15q1 0 1 2t1 2h2q0 2 1 3h2v2 h2v2q1 0 1 0.5t1 0.5v2h2l3 4l7 2v2h3q0 1 1 2q0 1 1 1h3l10 5t14 5h8q2 0 6 1.5t7 -0.5q9 -2 18 -2.5t17 -4.5l4 -4h3v-2q1 -1 3 -1t3 -2v-1q3 -3 7 -5v102q4 2 10.5 1.5t11.5 -0.5h45q2 -5 1.5 -12.5t-0.5 -13.5v-55v-183q2 -2 1.5 -12t-0.5 -15zM1517 662q-2 -2 -7 -2 t-8 -2q-5 -2 -9.5 -7.5t-6.5 -10.5q-2 -3 -1.5 -9t1.5 -9t0.5 -5t1.5 -4q5 -10 18.5 -15.5t28.5 -0.5q5 0 6 1q12 5 17.5 20.5t-3.5 29.5q-11 14 -38 14zM964 453q0 -12 8 -20.5t20 -13t26 -5t27 2.5h10q4 1 15.5 3.5t12.5 1.5q2 -2 1.5 -3.5t0.5 -4.5q2 -5 3.5 -13t3.5 -13 v-2v-5q-4 -3 -8.5 -3.5t-9.5 -2.5q-6 -2 -13.5 -3t-14.5 -3h-13q-7 -2 -17.5 -2t-16.5 2h-10q-8 2 -17.5 3.5t-17.5 5.5q-36 17 -50 55v4q0 2 -1 3.5t-1 3.5v5q-3 10 -3 24.5t3 25.5q5 16 12 29q0 3 2 5l4 5q2 2 2 5h2q2 2 2 3.5t2 2.5h2q2 2 3 4t3 4h2l2 4l8 3v1h3l5 5h3 q0 1 0.5 1t0.5 1l8 3h4q9 4 23 5.5t25 -0.5h10l4 -2t3 -1h5q0 -1 0.5 -1t0.5 -1q2 0 4 -0.5t4 -0.5v-2h3q5 -2 9.5 -6t8.5 -7h2v-2h2q0 -1 0.5 -1.5t0.5 -1.5h2v-2h2q2 -2 3 -5t3 -5q5 -5 8 -13t5 -14q1 -2 1 -11q2 -5 3.5 -13.5t-0.5 -13.5q-2 -6 -0.5 -12.5t-2.5 -10.5 q-1 -1 -5.5 -1h-10.5h-11.5h-8.5h-101zM589 572q31 0 49 -9.5t29 -29.5q7 -13 8 -31t1 -38v-92h-2q-2 -2 -8 -1.5t-9 0.5h-47q-3 6 -2 17t1 19v82q-1 1 -1 7q-2 3 -5 9.5t-6 8.5q-5 4 -15 6q-8 2 -17 -1t-13 -5l-3 -5h-2v-2h-2l-2 -7q-2 0 -2 -1q-3 -6 -2.5 -17t0.5 -19v-58 v-16.5t-1 -16.5q-4 -2 -10.5 -1.5t-11.5 0.5h-44q-2 4 -1.5 10t0.5 11v43q2 3 1.5 16.5t-0.5 18.5q0 24 -0.5 48.5t-0.5 47.5q4 2 10 2h12h44q2 -4 2 -11.5v-14.5h1q5 8 13 14t17 11q4 2 10 2.5t9 2.5zM1655 567h-66v-195h66v81q0 22 0.5 34.5t12.5 23.5v2q2 2 11 5.5 t14 2.5q20 -3 29 -19q4 -5 4 -18v-22v-90h67v92q0 14 -0.5 28t-4.5 24q0 8 -1 9q-7 19 -21 31l-6 3v2h-3l-3 3h-2l-1 1h-4q-1 1 -1 2q-3 2 -9.5 3t-14 1.5t-14.5 0t-11 -1.5q-6 -2 -14 -5t-12 -7v-2h-2q-4 -2 -7.5 -7.5t-6.5 -7.5v26zM445 371h-65q-2 4 -1.5 9.5t0.5 10.5 v41v135h1q3 2 8.5 1.5t9.5 -0.5h47q1 -4 0.5 -9.5t-0.5 -10.5v-40v-137zM1556 372v195h-66q-2 -3 -1.5 -8.5t0.5 -10.5v-40v-135q4 -2 10 -1.5t11 0.5h46zM1042 498q0 26 -18 37q-4 3 -12 4t-13 -1h-6q-2 0 -5 -3h-3q-7 -4 -14.5 -15t-7.5 -22h79zM1224 532q-3 -2 -8 -2.5 t-8 -2.5q-14 -9 -21 -27q-2 -3 -1.5 -7t-0.5 -8q-5 -23 5 -42t25 -24q3 -1 11.5 -1.5t12.5 0.5q20 6 25.5 19.5t5.5 39.5v24q-5 15 -15.5 23t-30.5 8z" />
<glyph unicode="&#x13c;" d="M1407 1370h324q26 -7 44.5 -16t36.5 -23h6v-7l10 -10h7q19 -19 27.5 -48.5t11.5 -65t2 -74.5t-1 -76v-637v-468q0 -35 0.5 -63t-2 -52t-9.5 -45t-22 -42q-2 -2 -3.5 -8t-3.5 -8h-7q-13 -11 -25 -23.5t-28 -19.5q-18 -8 -43 -11t-52.5 -3.5t-55.5 0.5t-53 1h-429h-632 h-198q-67 19 -107 62q-4 5 -5.5 11.5t-4.5 11.5q-4 8 -10.5 16.5t-9.5 16.5q-8 22 -5.5 54t2.5 59v264v759v224q0 24 -2 53.5t5 48.5q11 30 35.5 59.5t51.5 43.5q11 6 26 7t24 9h1095zM600 1027q-9 -6 -25.5 -7t-27.5 -6q-8 -3 -16.5 -10.5t-16.5 -16.5t-14.5 -19t-9.5 -17 q-5 -11 -4 -31.5t4 -31.5t2.5 -17.5t4.5 -15.5q9 -17 25.5 -31t39 -22.5t49 -10t53.5 7.5l23 4q21 10 37.5 30t24 44.5t5 51.5t-19.5 52q-18 26 -53 36.5t-81 9.5zM1089 697h-234v-683h234v284q0 37 -0.5 66.5t3 53.5t13.5 43.5t31 37.5v7q4 4 15.5 9.5t25 10t27 7.5t22.5 2 q40 -5 63 -21.5t41 -44.5q6 -9 8.5 -26.5t3.5 -38t1 -41.5v-36v-313h238v320q0 51 -2 99.5t-15 85.5l-3 29q-12 29 -33.5 59.5t-43.5 49.5q-2 2 -10 5t-10 5v7h-10q-2 1 -5 4.5t-6 5.5h-10l-3 6h-13q-1 2 -2 3.5t-2 3.5q-11 6 -34 10t-49 5.5t-51 0t-40 -5.5 q-11 -3 -24 -7.5t-26 -10.5t-24.5 -12.5t-18.5 -12.5v-7h-7q-6 -4 -12 -12t-12.5 -16t-13 -15t-12.5 -9v92zM737 14v683h-234q-5 -12 -4 -31t1 -35v-142v-472q14 -5 36 -4t41 1h160z" />
<glyph unicode="&#x13d;" d="M905 899h93v-213h5q3 5 8 6.5t11 4.5q32 17 65.5 12t55.5 -27q20 -20 32 -41t21 -50q7 -22 7 -49v-54v-164h-92v164v51t-8 43q-4 8 -10.5 17.5t-13.5 14.5q-3 2 -6.5 2.5t-6.5 3.5q-13 0 -20.5 -0.5t-12.5 -2t-10 -5t-12 -9.5q-3 -2 -7 -3.5t-6 -4.5v-271h-93v575z M1569 899h93v-213h3q5 6 12 8t15 5q25 10 47.5 10.5t42 -6.5t35 -20t26.5 -29q14 -21 23 -54t9 -67v-47q-8 -29 -15.5 -54.5t-18.5 -46.5t-28.5 -36.5t-45.5 -24.5q-10 -3 -22.5 -3t-25 2t-23 5t-16.5 7t-11 9.5t-13 7.5v-28h-87v575zM549 895q29 1 45.5 -8t24.5 -28 q7 -16 6 -31.5t-7.5 -28.5t-17 -22t-21.5 -12q-18 -5 -34 1.5t-26.5 20t-14 31t2.5 34.5q4 11 11.5 21t15.5 16q4 2 8 2.5t7 3.5zM694 778h91v-70h69v-86h-69v-151q0 -20 3 -38t19 -23q6 -6 14.5 -5.5t18 3t18 6t13.5 4.5v-83q-11 -2 -21.5 -7t-21.5 -8q-10 -2 -24.5 -2 t-22.5 2h-15q-14 4 -27.5 11.5t-21.5 18.5q-13 18 -18 51t-6 71.5t0 78t1 71.5h-45v86h45v70zM453 616q1 -8 3 -16l4 -16t-1.5 -22.5t-5.5 -19.5q-9 -29 -19 -46t-32 -33q-1 -2 -2 -3.5t-2 -3.5q-8 -5 -19 -9.5t-19 -7.5t-16 -4t-15 -2.5t-12.5 -5t-7.5 -11.5q-5 -4 -5 -11 v-15q2 -2 2.5 -4t2.5 -4q2 -3 7 -7t8 -6q12 -8 28 -8t31 -5q29 -10 49.5 -23.5t31.5 -40.5q4 -9 9.5 -25.5t1.5 -33.5l-4 -16t-5 -14q-5 -11 -10.5 -22t-14.5 -18q-16 -11 -36 -18t-41 -12h-43q-30 0 -58.5 3.5t-47.5 15.5q-43 27 -43 100q1 8 2.5 16.5t4.5 15.5 q5 13 16 24.5t22 18.5q7 3 14.5 5t13.5 7q-17 11 -26.5 37.5t2.5 54.5q4 8 10.5 12.5t11.5 10.5q-18 8 -34 25.5t-26 41t-11.5 50.5t9.5 54q11 25 29.5 44t42.5 30q21 10 54 12.5t57 -6.5l26 -10q0 -2 2 -4q5 -2 11.5 -0.5t9.5 2.5q11 2 20.5 2t19.5 4q8 2 15 5.5t15 5.5 v-85h-2v-3q-7 -2 -13.5 -3t-14.5 -3zM519 708h92v-384h-92v384zM1330 708v-143q0 -18 -0.5 -39t3.5 -36v-23q3 -14 8 -29t19 -20q3 -3 4.5 -2.5t6.5 -1.5q11 -4 20.5 -2.5t18 5.5t16 9.5t13.5 10.5v271h92v-384h-90v30h-2q-5 -8 -12.5 -11t-15.5 -8q-32 -19 -67 -13.5 t-58 28.5q-24 24 -34.5 65t-13 90t-1 102t1.5 101h91zM300 633q-3 -3 -7.5 -3.5t-9.5 -2.5q-18 -12 -25 -34v-11q-5 -18 1.5 -33.5t20 -25t31.5 -11.5t36 6q9 4 17 13.5t12.5 21.5t4 25t-7.5 25q-11 18 -27.5 24.5t-45.5 5.5zM1701 620q-3 -3 -9 -6t-12.5 -6t-11.5 -6.5 t-6 -6.5v-158q9 -5 17.5 -12.5t19.5 -10.5q13 -4 24.5 0.5t17.5 7.5q5 3 10.5 5.5t8.5 7.5q6 8 11.5 22.5t9 31t3.5 34t-4 31.5q-5 16 -10 28.5t-13.5 21t-21.5 12.5t-34 4zM304 290q-3 -2 -7.5 -2t-9.5 -2q-13 -5 -20 -11.5t-12 -20.5q-1 -2 -2 -7t0 -10q1 -2 2.5 -4.5 t2.5 -6.5q5 -2 8.5 -7t8.5 -7q6 -3 18.5 -5t27 -2.5t27.5 0.5t20 4q11 5 15.5 12t12.5 14q1 8 2 15t-4 13q-3 11 -12 16.5t-21.5 8t-27 2.5h-29.5z" />
<glyph unicode="&#x13e;" d="M1840 995h58h13t10 -2q2 -2 4 -10q-4 -4 -5 -8.5t-4 -9.5q-7 -11 -13.5 -21.5t-13.5 -20.5q-2 -4 -2.5 -7.5t-2.5 -6.5q-21 -34 -40.5 -69.5t-40.5 -69.5q-1 -3 -1.5 -5.5t-1.5 -5.5q-11 -17 -23 -37q-2 -3 -5.5 -9.5t-1.5 -8.5q2 -10 10.5 -22.5t13.5 -21.5q3 -4 4 -8.5 t3 -8.5q12 -19 22 -38.5t21 -39.5q5 -11 15 -25t8 -28q-6 -2 -17 -2.5t-23 0t-23.5 1t-19.5 0.5q-1 1 -9 3q-21 36 -41 72.5t-40 73.5q-1 2 -2.5 3t-2.5 3q-5 7 -7.5 14.5t-6.5 15.5l-5 5t-2 5q0 2 2.5 4.5l4.5 4.5q2 4 2.5 7t2.5 7q4 7 8.5 13.5t9.5 12.5q4 7 6 14t6 13 q14 23 27 46t27 45q2 4 3 7.5t3 7.5q10 16 20 33t20 33q5 8 10.5 21.5t14.5 15.5q1 2 2.5 2.5t2.5 1.5v0zM1546 900h44.5t40.5 -4q4 -8 10 -15.5t11 -15.5q0 -3 2 -7l4 -6t4 -5q3 -5 4.5 -9.5t4.5 -9.5q5 -7 9.5 -13t6.5 -15q-7 -6 -12.5 -19.5t-10.5 -21.5 q-10 -17 -20 -33.5t-20 -33.5q-2 -3 -3 -6.5t-3 -7.5q-2 -2 -4.5 -5t-4.5 -6v-3q-2 -2 -5 -4.5t-5 -4.5q-20 0 -43 -1t-42 3v2h-1q-1 11 4.5 19.5t10.5 17.5q2 3 3 6.5t3 7.5q7 11 14 22.5t14 22.5q2 4 2.5 7.5t2.5 7.5q5 8 11.5 16t8.5 19q-5 5 -7.5 11.5t-6.5 12.5 q-5 8 -11 16t-11 16q-1 3 -1.5 5.5t-1.5 5.5l-5 5t-4 5v13q3 1 7 5v0zM1298 467q-17 0 -36.5 -0.5t-34.5 1.5q-3 7 -4 16.5t-1 20t1 20.5t3 17h3q5 5 16 4.5t19 -0.5h87q11 0 20 -0.5t11 -8.5q2 -2 2.5 -10t0.5 -17.5t-0.5 -19t-0.5 -13.5v-162q-11 -2 -23.5 -7.5 t-23.5 -9.5q-15 -5 -35.5 -9t-42.5 -6t-44 -0.5t-39 6.5q-4 0 -7.5 0.5t-8.5 1.5q-4 2 -8.5 5t-8.5 5q-3 1 -5.5 2t-5.5 2q-1 2 -2 3.5t-3 3.5q-21 15 -32.5 36.5t-16.5 48t-5.5 58.5t-0.5 68q0 45 4 85t21 68q17 27 41.5 42.5t58.5 24.5q10 1 19 1t18 1q7 1 17 1.5t20.5 0 t20 -2t15.5 -3.5q5 0 9.5 -0.5t9.5 -0.5q4 -2 11 -4t14 -5t12.5 -6.5t6.5 -7.5q2 -3 2.5 -13t0 -21.5t-2 -20.5t-4.5 -10q-3 -2 -10 -1t-15 3t-15.5 4.5l-10.5 3.5q-11 3 -24 2t-25 2q-35 8 -63 -6.5t-37 -36.5q-8 -17 -8.5 -41.5t-0.5 -49.5q0 -26 -0.5 -51t2.5 -47 t11 -39.5t24 -26.5q7 -4 21.5 -5.5t31 -1t30.5 3t19 7.5q3 3 2.5 11.5t-0.5 14.5v69v0zM706 741q19 1 39 0.5t35 -3.5q3 -6 7 -12t7 -11t4.5 -10.5t4.5 -10.5q5 -8 10 -17t9 -17q5 -8 8 -17t8 -18q5 -10 11.5 -20t11.5 -20q3 -7 5 -13t6 -12q5 -8 10.5 -18t10.5 -19 q2 -4 2.5 -7t2.5 -7q5 -8 11 -17t8 -20h2v257q2 2 4 9h3q4 3 14.5 4t23 0.5t23.5 -2t15 -2.5q2 -23 2 -50v-52v-171v-111v-31.5t-2 -30.5q-2 0 -3 -0.5t-2 -0.5q-3 -2 -9.5 -2h-11.5q-16 0 -31.5 0.5t-27.5 2.5q-34 68 -68 134.5t-69 133.5h-2v-264q-1 -2 -0.5 -1.5 t-0.5 -2.5q-2 0 -3 -0.5t-3 -0.5q-2 -2 -8 -2h-11h-27.5t-25.5 2q-4 9 -5.5 25t-1.5 34.5t1 37t1 31.5v206q0 28 -1 59t4 54h4q1 1 2.5 1.5t2.5 1.5v0zM541 741q7 0 18.5 1t22.5 0.5t20 -2.5t11 -7q3 -5 2.5 -14.5t-0.5 -15.5v-81v-217q0 -26 1.5 -56.5t-3.5 -54.5 q-3 -2 -7 -3q-3 -2 -8 -2h-10t-13.5 -0.5t-17 -0.5t-15.5 1t-8 5q-4 5 -4 12.5v15.5v71v253v64v15t4 11q2 2 3.5 2.5t3.5 2.5v0zM136 741q22 1 46 1t42 -4q4 -9 10 -18t11 -17q0 -3 2 -7q2 -3 4 -6.5t4 -6.5q3 -4 4 -8.5t3 -8.5q23 -35 41 -73q2 2 1.5 2t0.5 2q6 6 8.5 14 t7.5 16q11 19 22.5 39.5t22.5 39.5q5 7 8.5 18.5t11.5 13.5q4 3 10.5 3h13.5q16 0 33.5 0.5t31.5 -1.5q2 -3 2 -7v-9q-4 -3 -5 -7t-4 -9q-1 -1 -1.5 -1t-1.5 -1q-2 -3 -2.5 -6.5t-2.5 -7.5q-2 0 -4 -2q-2 -3 -2.5 -6.5t-2.5 -7.5q-17 -26 -32 -53.5t-30 -53.5q-2 -3 -6 -11 t-8.5 -16t-7.5 -15.5t-2 -8.5q2 -6 5.5 -11t6.5 -10q2 -4 2.5 -7.5t2.5 -6.5q5 -8 10.5 -17t10.5 -17q3 -5 4 -9t3 -9q11 -17 20.5 -34t20.5 -34q2 -4 2.5 -7.5t2.5 -6.5q6 -10 16.5 -26t11.5 -29q-7 -4 -18 -5.5t-23.5 -1.5t-25.5 1t-23 1q-1 1 -7 3q-5 12 -12 23.5 t-14 22.5q-3 5 -3.5 9t-3.5 9q-7 11 -13.5 22t-12.5 22q-6 10 -11.5 24t-13.5 22v-2q-5 -3 -5.5 -7t-3.5 -9q-1 -1 -1.5 -1t-1.5 -1q-2 -3 -3 -6.5t-3 -7.5q-1 0 -3 -2q-2 -3 -2.5 -6.5t-2.5 -7.5q-16 -25 -31.5 -52t-28.5 -53q-20 -2 -44 -2h-46q-2 3 -3 5.5t-1 8.5 q8 8 13 21.5t12 24.5q13 20 24.5 42t24.5 42q1 2 1 3.5t1 3.5q2 2 4 4.5t3 4.5q2 4 2.5 7.5t2.5 6.5l4 2q2 4 2.5 7t2.5 7q1 1 2 1t2 1q2 4 3 8.5t4 8.5q3 6 7 11.5t5 13.5q-2 2 -2.5 5t-2.5 6q-1 0 -2 0.5t-2 0.5q-2 4 -2.5 7.5t-2.5 6.5q-2 2 -4 2q-2 4 -2.5 7.5t-2.5 6.5 q-12 20 -23.5 40.5t-23.5 40.5q-2 6 -2 7q-2 2 -4 4.5t-3 4.5q-2 4 -2.5 7.5t-2.5 6.5q-7 10 -18.5 28t-11.5 32q2 2 3.5 2.5t3.5 2.5v0z" />
<glyph unicode="&#x13f;" d="M1461 1389h210q20 0 45 1t37 -7q8 -6 9.5 -15t3.5 -23q-12 -14 -17 -30.5t-15 -32.5q-23 -37 -47.5 -76.5t-47.5 -75.5q-8 -13 -9.5 -26t-9.5 -25q-76 -122 -146 -250.5t-146 -250.5q-3 -10 -6 -19t-6 -19q-20 -32 -42 -66t-41 -67q-3 -6 -8.5 -15.5t-10 -19t-7 -17.5 t0.5 -11q4 -18 15 -39.5t24 -43t26.5 -41.5t23.5 -35q9 -15 12 -31.5t13 -31.5q42 -67 77.5 -137t74.5 -142q10 -19 26 -42t29.5 -48t22 -50.5t4.5 -49.5q-21 -8 -59.5 -10t-82 -1.5t-85.5 2.5t-70 2q-7 6 -14.5 8.5t-17.5 4.5q-77 128 -148 260t-144 266q-2 5 -9.5 10 t-9.5 9q-16 26 -26 53.5t-24 54.5q-2 3 -6.5 7.5t-9 10t-7.5 10.5t-3 10q1 7 11.5 17t14.5 15q8 12 9.5 25t9.5 25q14 23 31.5 47.5t31.5 47.5t22 47.5t22 47.5q50 81 98.5 165t98.5 165q8 13 9.5 25.5t9.5 25.5q36 59 72.5 120.5t73.5 120.5q9 14 17.5 34.5t19 41t23 36.5 t28.5 21q5 4 10 6t9 6v0zM403 1047q38 0 79 0.5t80.5 0t77 -3.5t67.5 -10q14 -30 36.5 -58t39.5 -56q2 -6 3 -12.5t3 -12.5q6 -8 16.5 -19t15.5 -19q11 -17 16 -35t16 -35q7 -12 16 -23t17.5 -23t14.5 -25.5t9 -29.5q-13 -10 -24 -28.5t-21 -39.5t-19 -42t-18 -36 q-37 -59 -73.5 -120.5t-72.5 -120.5q-8 -12 -9.5 -25t-9.5 -25q-6 -9 -16 -19.5t-16 -19.5v-12q-10 -8 -19 -16t-19 -16q-37 0 -76.5 -1.5t-79.5 -2t-77.5 1.5t-70.5 8v7h-7q-1 21 4 38.5t13.5 33t19 30.5t20.5 31q8 12 9.5 25t9.5 26q25 40 51 82t51 82q8 13 9.5 26t9.5 25 q9 14 19.5 28.5t20.5 30t18.5 32.5t11.5 36q-9 9 -15.5 19.5t-12 22.5l-11 24t-12.5 23q-17 27 -38 56.5t-38 57.5q-3 9 -6.5 18.5t-6.5 19.5q-5 8 -16.5 19t-14.5 19v44q13 7 25 19v0z" />
<glyph unicode="&#x140;" horiz-adv-x="0" />
<glyph unicode="&#x142;" horiz-adv-x="0" />
<glyph unicode="&#x143;" horiz-adv-x="0" />
<glyph unicode="&#x144;" horiz-adv-x="0" />
<glyph unicode="&#x145;" horiz-adv-x="0" />
<glyph unicode="&#x146;" horiz-adv-x="0" />
<glyph unicode="&#x147;" horiz-adv-x="0" />
<glyph unicode="&#x148;" horiz-adv-x="0" />
<glyph unicode="&#x149;" horiz-adv-x="0" />
<glyph unicode="&#x14a;" horiz-adv-x="0" />
<glyph unicode="&#x14b;" horiz-adv-x="0" />
<glyph unicode="&#x14c;" horiz-adv-x="0" />
<glyph unicode="&#x14d;" horiz-adv-x="0" />
<glyph unicode="&#x14e;" horiz-adv-x="0" />
<glyph unicode="&#x14f;" horiz-adv-x="0" />
<glyph unicode="&#x150;" horiz-adv-x="0" />
<glyph unicode="&#x151;" horiz-adv-x="0" />
<glyph unicode="&#x153;" horiz-adv-x="1265" />
<glyph unicode="&#x154;" horiz-adv-x="0" />
<glyph unicode="&#x155;" horiz-adv-x="0" />
<glyph unicode="&#x156;" horiz-adv-x="0" />
<glyph unicode="&#x157;" horiz-adv-x="0" />
<glyph unicode="&#x158;" horiz-adv-x="0" />
<glyph unicode="&#x159;" horiz-adv-x="0" />
<glyph unicode="&#x15a;" horiz-adv-x="0" />
<glyph unicode="&#x15b;" horiz-adv-x="0" />
<glyph unicode="&#x15c;" horiz-adv-x="0" />
<glyph unicode="&#x15d;" horiz-adv-x="0" />
<glyph unicode="&#x15e;" horiz-adv-x="0" />
<glyph unicode="&#x15f;" horiz-adv-x="0" />
<glyph unicode="&#x160;" horiz-adv-x="0" />
<glyph unicode="&#x161;" horiz-adv-x="0" />
<glyph unicode="&#x162;" horiz-adv-x="0" />
<glyph unicode="&#x163;" horiz-adv-x="0" />
<glyph unicode="&#x164;" horiz-adv-x="0" />
<glyph unicode="&#x165;" horiz-adv-x="0" />
<glyph unicode="&#x166;" horiz-adv-x="0" />
<glyph unicode="&#x167;" horiz-adv-x="0" />
<glyph unicode="&#x168;" horiz-adv-x="0" />
<glyph unicode="&#x169;" horiz-adv-x="0" />
<glyph unicode="&#x16a;" horiz-adv-x="0" />
<glyph unicode="&#x16b;" horiz-adv-x="0" />
<glyph unicode="&#x16c;" horiz-adv-x="0" />
<glyph unicode="&#x16d;" horiz-adv-x="0" />
<glyph unicode="&#x16e;" horiz-adv-x="0" />
<glyph unicode="&#x16f;" horiz-adv-x="0" />
<glyph unicode="&#x170;" d="M1117 656q0 -24 -8 -45.5t-21.5 -37t-31.5 -25t-39 -9.5t-39 9.5t-31.5 25t-21.5 37t-8 45.5q0 4 0.5 8t0.5 8h-1l9 429q0 17 10 17t10 -17v-358q0 -16 14 -16t14 16l6 358q0 17 11 17q10 0 10 -17l2 -358q0 -16 14 -16t14 16l2 358q0 17 10 17t10 -17l7 -358 q0 -16 14 -16t14 16v358q0 17 10 17t10 -17l9 -429h-2q1 -5 1.5 -9t0.5 -7zM1461 581q-8 -18 -17.5 -46t-9.5 -60q1 -91 4.5 -183.5t8.5 -178.5t10 -162.5t9.5 -136.5l7.5 -100t3 -52q0 -38 -21 -60.5t-50 -22.5t-50 22.5t-21 60.5q0 12 1 52l2.5 100t3 136.5t3.5 162.5 t3.5 178.5t2.5 183.5q0 25 -1.5 48t-3.5 40.5t-4 29.5t-2 15v3q-8 18 -13 38.5t-5 41.5v681q0 17 1.5 32t6 26.5t13.5 18t25 6.5q24 -11 48 -89q10 -33 22 -84.5t25 -126t25.5 -175.5t24.5 -233q1 -5 1.5 -11t0.5 -12q0 -17 -4 -36.5t-11 -39t-17 -37t-22 -30.5zM1045 473 q1 -91 4.5 -183.5t8 -178.5t10 -162.5t10 -136.5l7.5 -100t3 -52q0 -38 -21 -60.5t-50 -22.5t-50 22.5t-21 60.5q0 12 3 52l7.5 100t9.5 136.5t9.5 162.5t8 178.5t4.5 183.5q0 25 -5.5 47.5t-12.5 40.5t-13 30t-6 15t5 9t13.5 11t20.5 9t27 4t27 -4t20.5 -9t13.5 -11t5 -9 t-6 -15t-13.5 -30t-13 -40.5t-5.5 -47.5zM614 1037q34 0 64.5 -31t53 -77.5t35.5 -100.5t13 -100q0 -39 -13 -73.5t-35.5 -60t-53 -40.5t-64.5 -15q-35 0 -65 15t-52.5 40.5t-35.5 60t-13 73.5q0 46 13 100t35.5 100.5t52.5 77.5t65 31zM643 473q1 -91 4.5 -183.5t8 -178.5 t9.5 -162.5t9.5 -136.5l7.5 -100t3 -52q0 -38 -21 -60.5t-50 -22.5t-50 22.5t-21 60.5q0 12 3 52l7.5 100t10 136.5t10 162.5t8 178.5t4.5 183.5q0 25 -5.5 47.5t-13 40.5t-13.5 30t-6 15t5 9t13.5 11t20.5 9t27 4t27 -4t21 -9t14 -11t5 -9t-6 -15t-13.5 -30t-13 -40.5 t-5.5 -47.5z" />
<glyph unicode="&#x171;" d="M1245 -16q-24 -14 -39 -39.5t-15 -55.5q0 -23 8.5 -43t23.5 -35t34.5 -24t42.5 -10q1 0 1 0.5t1 0.5q23 0 39.5 -16.5t16.5 -39.5t-16.5 -39.5t-39.5 -16.5h-554h-2q-23 0 -39.5 16.5t-16.5 39.5t16.5 39t39.5 16h1q22 0 42.5 9t35.5 24t24 35.5t9 43.5q0 29 -14 54 t-38 39q-51 29 -94 80t-73.5 113.5t-47.5 130.5t-17 131v97h900v-97q0 -63 -16.5 -131t-46.5 -129.5t-72.5 -112.5t-93.5 -80zM1022 577q-141 0 -227 -0.5t-131 -0.5q-31 72 -31 151q0 63 14 135t39.5 143t61 136t79 115t93.5 80t104 30t104 -30t93.5 -80t79 -115t61 -136 t39.5 -143t14 -135q0 -26 -4 -51.5t-10 -49.5q-40 -25 -131.5 -37t-247.5 -12z" />
<glyph unicode="&#x172;" d="M1025 1459q99 0 190 -54.5t170.5 -146t145 -211t112 -249.5t72 -261.5t25.5 -246.5q0 -99 -25.5 -190t-72 -170.5t-112 -145t-145 -112t-170.5 -72t-190 -25.5q-149 0 -279 56t-227.5 153t-153.5 227.5t-56 278.5q0 115 25.5 246.5t72 261.5t112 249.5t145 211t171 146 t190.5 54.5zM1025 805q-107 0 -201 -40.5t-164 -110.5t-110.5 -164t-40.5 -200q0 -107 40.5 -201t110.5 -164t164 -110.5t201 -40.5q106 0 200 40.5t164 110.5t110.5 164t40.5 201q0 106 -40.5 200t-110.5 164t-164 110.5t-200 40.5z" />
<glyph unicode="&#x173;" d="M1720 720v-1143h-614v1306h71l-145 541l74 20l150 -561h301l-81 81q34 34 76.5 50.5t86.5 16.5t86.5 -16.5t76.5 -50.5t50.5 -76.5t16.5 -86.5t-16.5 -86.5t-50.5 -76.5zM1644 574q-2 -13 -6 -30.5t-11 -40.5q-12 -43 -20 -66t-21.5 -31t-37 -3.5t-66.5 16.5 q-32 9 -53 15t-32 14q6 -12 11.5 -31t12.5 -46q11 -43 16 -66t-3 -37q13 6 35.5 7t59.5 1q30 0 50.5 -0.5t34 -4t20.5 -11t10 -20.5v334zM1183 115h199l-30 115l-15 -4q-43 -12 -66.5 -16.5t-37 3.5t-21.5 31t-20 66q-6 21 -9 35v-230zM1183 806v-388q9 11 31.5 18.5 t61.5 18.5l14 4l-93 347h-14zM1277 806l89 -334q10 -1 17 -7q-5 14 -0.5 37t15.5 62q12 43 20 66t21.5 31t37 3.5t66.5 -16.5q25 -7 43.5 -12.5t30.5 -11t18.5 -12.5t8.5 -17v211h-367zM1627 979q-15 4 -28.5 -4t-18.5 -23q-2 -9 0 -18l-1 -51h48l19 33q6 6 8 16q5 15 -3 29 t-24 18zM1748 910q-11 11 -27.5 11t-27.5 -11q-5 -7 -9 -16l-7 -11h43v-44l12 7q9 4 16 9q11 11 11 27.5t-11 27.5zM1817 790q-5 15 -18.5 23t-28.5 4q-12 -5 -16 -9l-34 -19v-48l52 1q10 -2 18 1q15 4 23 17.5t4 29.5zM597 345q-71 0 -133 44t-108.5 116t-73 164t-26.5 188 q0 37 1.5 73t3.5 71q2 30 5 62t7.5 63.5t11 61t14.5 53.5h597q16 -75 25 -143.5t13 -122.5q2 -31 3.5 -60.5t1.5 -57.5q0 -96 -27 -188t-73.5 -164t-109 -116t-132.5 -44zM371 1156q-23 -130 -25 -225t6 -159h491q8 64 5.5 159t-24.5 225h-453zM341 -380q11 0 31 10 t43.5 26.5t48.5 38t45 45.5t33 48t13 45v470h85v-470q0 -21 13 -45t33 -48t44.5 -45.5t48.5 -38t43.5 -26.5t30.5 -10q9 0 15.5 -6.5t6.5 -14.5q0 -9 -6.5 -15.5t-15.5 -6.5h-512q-8 0 -14.5 6.5t-6.5 15.5q0 8 6.5 14.5t14.5 6.5z" />
<glyph unicode="&#x174;" d="M1451 345q-71 0 -133 44t-108.5 116t-73.5 164t-27 188q0 37 1.5 73t3.5 71q2 30 5 62t7.5 63.5t11 61t14.5 53.5h597q16 -75 25 -143.5t13 -122.5q2 -31 3.5 -60.5t1.5 -57.5q0 -96 -26.5 -188t-73 -164t-109 -116t-132.5 -44zM1224 1156q-22 -130 -24.5 -225t5.5 -159 h491q8 64 6 159t-25 225h-453zM789 89q0 -80 16.5 -157t37 -141t37 -109.5t16.5 -61.5v-21q0 -9 -6.5 -15.5t-14.5 -6.5h-22h-426h-22q-8 0 -14.5 6.5t-6.5 15.5v21q0 16 16.5 61.5t37 109.5t37 141t16.5 157t-17.5 169t-41.5 189t-49.5 212.5t-41.5 240.5q-6 49 -10 96.5 t-6 95.5q-2 40 -2.5 83t1 85t5.5 81t12 71h598q8 -32 12 -71t5.5 -81t1 -85t-2.5 -83q-2 -48 -6 -95.5t-10 -96.5q-16 -128 -41.5 -240.5t-49.5 -212.5t-41.5 -189t-17.5 -169zM684 1327h-88h-183q-6 -50 -8 -90.5t-1 -76.5t3.5 -68t5.5 -64h185h84h185q3 32 5.5 64t3.5 68 t-1 76.5t-8 90.5h-183zM1195 -380q10 0 30 10t44 26.5t48.5 38t44.5 45.5t33 48t13 45v470h85v-470q0 -21 13 -45t33 -48t45 -45.5t48.5 -38t43.5 -26.5t31 -10q8 0 14.5 -6.5t6.5 -14.5q0 -9 -6.5 -15.5t-14.5 -6.5h-512q-9 0 -15.5 6.5t-6.5 15.5q0 8 6.5 14.5t15.5 6.5z " />
<glyph unicode="&#x175;" d="M683 -252v1451h682v-1451h-682zM1047 515q14 8 39 9t67 1q33 0 56 -0.5t37.5 -4.5t22.5 -12.5t11 -23.5v371q-2 -14 -6.5 -33.5t-11.5 -45.5q-13 -48 -22 -73t-24 -34t-41.5 -4t-74.5 18q-36 10 -58.5 17t-35.5 16q7 -14 13 -35t14 -51q13 -48 17.5 -74t-3.5 -41z M1021 345v48q0 42 1 67t9 39q-13 -8 -35 -14.5t-56 -15.5q-48 -13 -74.5 -18.5t-42 3.5t-24.5 34.5t-21 73.5l-10 39v-256h253zM768 1113v-431q11 13 34.5 21t68.5 20q51 14 78 18.5t42 -6.5q-6 15 -1 40t17 70q13 48 22 73t24 34t41.5 4t74.5 -18q28 -8 48 -14t33.5 -12 t20.5 -14t9 -19v234h-512z" />
<glyph unicode="&#x176;" d="M1329 720v-1143h-614v1306h71l-145 541l74 20l150 -561h301l-81 81q34 34 76.5 50.5t86.5 16.5t86.5 -16.5t76.5 -50.5t50.5 -76.5t16.5 -86.5t-16.5 -86.5t-50.5 -76.5zM1252 574q-2 -13 -6 -30.5t-10 -40.5q-12 -43 -20 -66t-21.5 -31t-37 -3.5t-66.5 16.5 q-32 9 -53 15t-32 14q6 -12 11 -31t13 -46q12 -43 16.5 -66t-3.5 -37q13 6 35 7t60 1q30 0 50.5 -0.5t33.5 -4t20 -11t10 -20.5v334zM792 115h199l-30 115l-15 -4q-43 -12 -66.5 -16.5t-37 3.5t-21.5 31t-20 66q-6 21 -9 35v-230zM792 806v-388q9 11 31 18.5t62 18.5l14 4 l-93 347h-14zM886 806l89 -334q10 -1 17 -7q-5 14 -0.5 37t15.5 62q11 43 19 66t21.5 31t37.5 3.5t67 -16.5q26 -7 44 -12.5t29.5 -11t18 -12.5t8.5 -17v211h-366zM1236 979q-15 4 -28.5 -4t-18.5 -23q-2 -9 0 -18l-1 -51h48l19 33q6 6 8 16q5 15 -3 29t-24 18zM1356 910 q-11 11 -27 11t-27 -11q-5 -7 -9 -16l-7 -11h43v-44l12 7q9 3 15 9q11 11 11 27.5t-11 27.5zM1426 790q-5 15 -18.5 23t-28.5 4q-10 -3 -16 -9l-34 -19v-48l52 1q10 -2 17 1q16 4 24 17.5t4 29.5z" />
</font>
</defs>
</svg>
